<?xml version="1.0" standalone="no"?>
<!DOCTYPE svg PUBLIC "-//W3C//DTD SVG 1.1//EN" "http://www.w3.org/Graphics/SVG/1.1/DTD/svg11.dtd" >
<svg xmlns="http://www.w3.org/2000/svg" xmlns:xlink="http://www.w3.org/1999/xlink" version="1.1">
<metadata>
Created by FontForge 20170731 at Wed Sep 20 15:30:58 2023
 By Aleksey,,,
Copyright (c) 2017 by Oliver Jeschke. All rights reserved.
</metadata>
<defs>
<font id="Sequel100Wide-45" horiz-adv-x="1421" >
  <font-face 
    font-family="Sequel 100 Wide 45"
    font-weight="312"
    font-stretch="expanded"
    units-per-em="2048"
    panose-1="2 11 6 3 5 0 0 2 0 4"
    ascent="1638"
    descent="-410"
    x-height="1102"
    cap-height="1462"
    bbox="-422 -899 4588 2189"
    underline-thickness="102"
    underline-position="-307"
    unicode-range="U+000D-FB02"
  />
<missing-glyph 
d="M1333 2189v-3088h-1247v3088h1247zM246 2056v-2820h928v2820h-928zM600 801h-272q20 311 374 311q162 0 263.5 -72.5t101.5 -205.5q0 -43 -11.5 -76t-34.5 -56.5t-44 -38t-55 -32.5q-64 -33 -85.5 -53t-21.5 -52v-6h-242v33q0 76 32 118.5t118 94.5q34 20 49.5 39
t15.5 45q0 29 -22.5 47t-65.5 18q-44 0 -71.5 -29.5t-28.5 -84.5zM551 190v252h287v-252h-287z" />
    <glyph glyph-name="fi" unicode="fi" horiz-adv-x="1363" 
d="M698 1323q-50 0 -85 -6t-67 -22t-48.5 -49.5t-16.5 -84.5v-59h314v-180h-314v-922h-250v922h-196v180h196v78q0 186 108 264t320 78q73 0 160 -15v-194q-77 10 -121 10zM969 1286v205h258v-205h-258zM973 0v1102h250v-1102h-250z" />
    <glyph glyph-name="fl" unicode="fl" horiz-adv-x="1394" 
d="M698 1323q-50 0 -85 -6t-67 -22t-48.5 -49.5t-16.5 -84.5v-59h314v-180h-314v-922h-250v922h-196v180h196v78q0 186 108 264t320 78q73 0 160 -15v-194q-77 10 -121 10zM1004 0v1483h249v-1483h-249z" />
    <glyph glyph-name="f_f" unicode="ff" horiz-adv-x="1593" 
d="M1430 1323q-50 0 -85 -6t-67.5 -22t-49 -49.5t-16.5 -84.5v-59h314v-180h-314v-922h-249v922h-482v-922h-250v922h-196v180h196v78q0 186 108 264t320 78q73 0 160 -15v-194q-77 10 -121 10q-50 0 -85 -6t-67 -22t-48.5 -49.5t-16.5 -84.5v-59h482v78q0 186 108 264
t320 78q71 0 159 -15v-194q-78 10 -120 10z" />
    <glyph glyph-name="f_f_i" unicode="ffi" horiz-adv-x="2095" 
d="M963 1180q0 186 108 264t320 78q71 0 159 -15v-194q-78 10 -120 10q-50 0 -85 -6t-67.5 -22t-49 -49.5t-16.5 -84.5v-59h314v-180h-314v-922h-249v922h-482v-922h-250v922h-196v180h196v78q0 186 108 264t320 78q73 0 160 -15v-194q-77 10 -121 10q-50 0 -85 -6t-67 -22
t-48.5 -49.5t-16.5 -84.5v-59h482v78zM1700 1491h258v-205h-258v205zM1704 0v1102h250v-1102h-250z" />
    <glyph glyph-name=".notdef" 
d="M1333 2189v-3088h-1247v3088h1247zM246 2056v-2820h928v2820h-928zM600 801h-272q20 311 374 311q162 0 263.5 -72.5t101.5 -205.5q0 -43 -11.5 -76t-34.5 -56.5t-44 -38t-55 -32.5q-64 -33 -85.5 -53t-21.5 -52v-6h-242v33q0 76 32 118.5t118 94.5q34 20 49.5 39
t15.5 45q0 29 -22.5 47t-65.5 18q-44 0 -71.5 -29.5t-28.5 -84.5zM551 190v252h287v-252h-287z" />
    <glyph glyph-name=".null" horiz-adv-x="0" 
 />
    <glyph glyph-name="nonmarkingreturn" horiz-adv-x="682" 
 />
    <glyph glyph-name="CR" unicode="&#xd;" horiz-adv-x="299" 
 />
    <glyph glyph-name="space" unicode=" " horiz-adv-x="686" 
 />
    <glyph glyph-name="exclam" unicode="!" horiz-adv-x="626" 
d="M401 438h-176l-39 639v385h254v-385zM164 0v279h299v-279h-299z" />
    <glyph glyph-name="quotedbl" unicode="&#x22;" horiz-adv-x="817" 
d="M307 852h-219v610h219v-610zM729 852h-219l2 610h217v-610z" />
    <glyph glyph-name="numbersign" unicode="#" horiz-adv-x="1329" 
d="M1241 868h-217l-63 -305h223l-39 -162h-217l-84 -401h-182l83 401h-294l-84 -401h-181l84 401h-219l35 162h217l64 305h-222l35 164h219l84 404h183l-84 -404h295l84 404h180l-84 -404h221zM778 563l64 305h-295l-64 -305h295z" />
    <glyph glyph-name="dollar" unicode="$" horiz-adv-x="1556" 
d="M1477 424q0 -115 -48 -200.5t-139 -137.5t-211 -78.5t-274 -29.5v-222h-119v223q-636 26 -641 508h262q3 -80 32 -138.5t82 -93t117.5 -52t147.5 -22.5v461l-203 26q-86 11 -152 34t-121 64.5t-84.5 109.5t-29.5 160q0 103 43.5 181.5t123 128.5t185.5 77t238 32v169h119
v-169q133 -5 241 -32t195.5 -80t137 -142t51.5 -208h-263q-3 69 -32 119t-79.5 79.5t-111.5 44t-139 18.5v-399l278 -34q56 -7 102.5 -19t93 -32.5t81 -50.5t62 -71t41.5 -97.5t14 -126.5zM578 883l108 -14v385q-150 -7 -235.5 -56t-85.5 -145q0 -83 53.5 -120t159.5 -50z
M805 179q186 5 293 64t106 165q-1 52 -17.5 88.5t-50 58.5t-72.5 33t-95 18l-164 21v-448z" />
    <glyph glyph-name="percent" unicode="%" horiz-adv-x="2121" 
d="M483 1462q196 0 302 -107.5t106 -303.5t-106 -304t-302 -108t-301.5 108t-105.5 304t105.5 303.5t301.5 107.5zM1384 1436h213l-860 -1436h-213zM483 803q209 0 209 248q0 247 -209 247t-209 -247q0 -248 209 -248zM1638 795q196 0 302 -108t106 -304t-106 -304
t-302 -108t-301.5 108t-105.5 304t105.5 304t301.5 108zM1638 135q209 0 209 248t-209 248q-208 0 -208 -248t208 -248z" />
    <glyph glyph-name="ampersand" unicode="&#x26;" horiz-adv-x="1712" 
d="M1688 0h-324l-145 135q-194 -160 -519 -160q-130 0 -240 26t-193 76.5t-130 132t-47 185.5q0 282 268 389l117 47l-20 19q-87 82 -130.5 153.5t-43.5 155.5q0 147 128.5 241.5t352.5 94.5q227 0 355 -94.5t128 -241.5q0 -110 -68.5 -184t-187.5 -125l-144 -63l336 -314
q48 126 48 301h237q0 -284 -105 -469zM659 961l43 -41l148 59q135 55 135 164q0 73 -52.5 120.5t-170.5 47.5q-117 0 -170 -47.5t-53 -120.5q0 -42 30.5 -85t89.5 -97zM700 172q225 0 357 115l-432 404l-101 -44q-76 -33 -120 -97.5t-44 -146.5q0 -109 88 -170t252 -61z" />
    <glyph glyph-name="quotesingle" unicode="'" horiz-adv-x="395" 
d="M307 852h-219v610h219v-610z" />
    <glyph glyph-name="parenleft" unicode="(" horiz-adv-x="786" 
d="M324 578q0 -155 30 -296.5t74.5 -241.5t102 -184t105.5 -131.5t91 -76.5h-223q-46 31 -95.5 75t-115 128t-115 182t-84.5 242t-35 303t35 303t84.5 242t115 181.5t114.5 127.5t96 75h223q-43 -29 -91 -76.5t-105.5 -131t-102 -183.5t-74.5 -241.5t-30 -296.5z" />
    <glyph glyph-name="parenright" unicode=")" horiz-adv-x="786" 
d="M463 578q0 155 -30.5 296.5t-75 241.5t-102 183.5t-105.5 131t-91 76.5h224q46 -31 95.5 -75t115 -127.5t114.5 -181.5t84 -242t35 -303t-35 -303t-84 -242t-114.5 -182t-115 -128t-95.5 -75h-224q43 29 91 76.5t105.5 131.5t102 184t75 241.5t30.5 296.5z" />
    <glyph glyph-name="asterisk" unicode="*" horiz-adv-x="974" 
d="M899 1200l-264 -158l264 -159l-104 -144l-220 154l7 -272h-189l6 272l-219 -154l-104 144l264 159l-264 158l104 143l219 -153l-6 272h189l-7 -272l220 153z" />
    <glyph glyph-name="plus" unicode="+" 
d="M1251 770v-205h-434v-438h-213v438h-434v205h434v438h213v-438h434z" />
    <glyph glyph-name="comma" unicode="," horiz-adv-x="626" 
d="M463 279v-222q0 -225 -69 -322t-228 -100v115q74 3 105.5 56t31.5 194h-139v279h299z" />
    <glyph glyph-name="hyphen" unicode="-" horiz-adv-x="792" 
d="M711 483h-629v205h629v-205z" />
    <glyph glyph-name="period" unicode="." horiz-adv-x="626" 
d="M164 0v279h299v-279h-299z" />
    <glyph glyph-name="slash" unicode="/" horiz-adv-x="856" 
d="M569 1462h228l-551 -1462h-228z" />
    <glyph glyph-name="zero" unicode="0" horiz-adv-x="1667" 
d="M834 1456q359 0 551 -194.5t192 -550.5q0 -357 -192 -551.5t-551 -194.5t-551.5 195t-192.5 551t192.5 550.5t551.5 194.5zM834 170q241 0 365 138t124 403t-124 402.5t-365 137.5t-365.5 -137.5t-124.5 -402.5t124.5 -403t365.5 -138z" />
    <glyph glyph-name="one" unicode="1" horiz-adv-x="866" 
d="M702 1421v-1421h-249v1032h-387v185h104q147 0 217 46.5t100 157.5h215z" />
    <glyph glyph-name="two" unicode="2" horiz-adv-x="1501" 
d="M588 401q-93 -42 -153.5 -95t-72.5 -101h1035v-205h-1327v47q0 89 26 165t64.5 129.5t100 103t115 80t126.5 65.5l354 170q50 24 84 42.5t71.5 44.5t59.5 51t36.5 58t14.5 70q0 225 -356 225q-60 0 -115 -8.5t-111.5 -31t-98 -58t-69 -94.5t-30.5 -135h-268
q3 117 42.5 209.5t104 152t154 98.5t185.5 55.5t206 16.5q138 0 245.5 -21t194.5 -68.5t133.5 -132.5t46.5 -204q0 -43 -7.5 -82t-19 -69.5t-33 -60.5t-40 -51t-49.5 -44.5t-53 -38t-59.5 -33.5t-59.5 -29.5t-61 -28.5q-7 -3 -11 -5z" />
    <glyph glyph-name="three" unicode="3" horiz-adv-x="1511" 
d="M1174 741q125 -25 191.5 -112t66.5 -234q0 -235 -168.5 -332.5t-520.5 -97.5q-678 0 -694 506h273q9 -162 116 -231.5t305 -69.5q99 0 172.5 11t131 36t87 69.5t29.5 108.5q0 129 -86 184.5t-280 55.5h-209v194h231q162 0 231.5 52t69.5 168q0 56 -31 96.5t-85.5 62.5
t-119 32.5t-141.5 10.5t-140 -13.5t-116 -42t-85.5 -80t-39.5 -122.5h-270q7 98 45 177t98.5 131.5t142.5 88t172.5 51t192.5 15.5q641 0 641 -401q0 -120 -56.5 -200.5t-153.5 -104.5v-9z" />
    <glyph glyph-name="four" unicode="4" horiz-adv-x="1533" 
d="M987 350h-942v199l889 872h293v-870h241v-201h-241v-350h-240v350zM987 551v633h-8l-637 -625v-8h645z" />
    <glyph glyph-name="five" unicode="5" horiz-adv-x="1482" 
d="M1294 1421v-204h-917l-19 -340h9q154 114 395 114q145 0 260 -29.5t201 -90t132 -160t46 -232.5q0 -262 -174 -388t-486 -126q-304 0 -478 114.5t-181 332.5h276q24 -242 383 -242q190 0 293 72t103 237q0 68 -18.5 120.5t-51.5 87.5t-82.5 57.5t-107 32t-129.5 9.5
q-76 0 -137.5 -10.5t-110 -33t-75.5 -39t-67 -46.5h-249l41 764h1144z" />
    <glyph glyph-name="six" unicode="6" horiz-adv-x="1558" 
d="M840 934q307 0 473 -126t166 -355q0 -235 -173 -361.5t-509 -126.5q-359 0 -533 177.5t-174 566.5q0 367 177.5 557t533.5 190q137 0 246.5 -25.5t179 -66t117 -96t69 -109.5t27.5 -112h-266q-12 87 -106.5 145.5t-238.5 58.5q-82 0 -147.5 -12t-126.5 -43.5
t-102.5 -82.5t-68 -132.5t-30.5 -189.5h8q92 75 207 109t271 34zM799 729q-205 0 -310.5 -73.5t-105.5 -202.5q0 -135 108 -209t308 -74q197 0 306 74t109 207q0 130 -107 204t-308 74z" />
    <glyph glyph-name="seven" unicode="7" horiz-adv-x="1425" 
d="M35 1421h1329v-114q0 -84 -41 -164q-34 -68 -85.5 -142t-103 -138t-109 -136t-107.5 -149t-92.5 -162.5t-71.5 -192t-37 -223.5h-279q11 137 43.5 259t79 217t101 177.5t115.5 155.5t115.5 135.5t108 132t86.5 131.5v9h-1052v204z" />
    <glyph glyph-name="eight" unicode="8" horiz-adv-x="1556" 
d="M778 1456q334 0 502 -96.5t168 -304.5q0 -113 -65 -192.5t-175 -112.5v-9q258 -52 258 -350q0 -226 -169 -326t-519 -100t-519 100t-169 326q0 298 258 350v9q-110 33 -174.5 112.5t-64.5 192.5q0 208 167.5 304.5t501.5 96.5zM778 1251q-405 0 -405 -209q0 -57 28 -97.5
t82.5 -64.5t127 -35t167.5 -11q406 0 406 208q0 209 -406 209zM778 170q219 0 319.5 53t100.5 180q0 128 -100.5 181t-319.5 53t-319.5 -53t-100.5 -181q0 -127 100.5 -180t319.5 -53z" />
    <glyph glyph-name="nine" unicode="9" horiz-adv-x="1533" 
d="M694 487q-306 0 -472.5 126t-166.5 356q0 234 173 360.5t509 126.5q359 0 533 -177t174 -566q0 -367 -177.5 -557.5t-533.5 -190.5q-137 0 -246.5 25.5t-179 66.5t-117 96.5t-69 109.5t-27.5 112h266q12 -87 106.5 -146t238.5 -59q82 0 147.5 12.5t126.5 44t102.5 82.5
t68 132.5t30.5 189.5h-9q-92 -75 -207 -109.5t-270 -34.5zM735 692q204 0 310 74t106 203q0 135 -107.5 208.5t-308.5 73.5q-197 0 -306.5 -73.5t-109.5 -206.5q0 -130 107.5 -204.5t308.5 -74.5z" />
    <glyph glyph-name="colon" unicode=":" horiz-adv-x="626" 
d="M164 737v279h299v-279h-299zM164 0v279h299v-279h-299z" />
    <glyph glyph-name="semicolon" unicode=";" horiz-adv-x="626" 
d="M164 737v279h299v-279h-299zM463 279v-222q0 -225 -69 -322t-228 -100v115q74 3 105.5 56t31.5 194h-139v279h299z" />
    <glyph glyph-name="less" unicode="&#x3c;" horiz-adv-x="1417" 
d="M170 754l1077 460v-223l-776 -325v-9l776 -325v-223l-1077 460v185z" />
    <glyph glyph-name="equal" unicode="=" 
d="M1251 981v-205h-1081v205h1081zM1251 551v-205h-1081v205h1081z" />
    <glyph glyph-name="greater" unicode="&#x3e;" 
d="M1251 754v-185l-1081 -460v223l778 325v9l-778 325v223z" />
    <glyph glyph-name="question" unicode="?" horiz-adv-x="1320" 
d="M319 993h-258q2 104 35 188.5t90 142t136 96t169.5 56t194.5 17.5q261 0 417.5 -104.5t156.5 -290.5q0 -71 -16 -125.5t-49.5 -95t-69 -68t-89.5 -59.5l-102 -60q-81 -47 -108 -99t-27 -142v-11h-242v51q0 89 25.5 153t68 107t119.5 93l92 59q68 43 99.5 87.5t31.5 115.5
q0 94 -85.5 142t-219.5 48q-54 0 -102.5 -8t-97.5 -28.5t-84.5 -53.5t-59 -87t-25.5 -124zM528 0v279h299v-279h-299z" />
    <glyph glyph-name="at" unicode="@" horiz-adv-x="2148" 
d="M1350 1006h215l-129 -672q-13 -50 -2 -79.5t57 -29.5q61 0 122 26.5t116 79.5t89.5 146t34.5 211q0 142 -49.5 261t-143.5 206.5t-239 136.5t-327 49q-165 0 -312 -63t-254.5 -173t-170 -267.5t-62.5 -339.5q0 -148 40.5 -269.5t110 -205.5t166 -141.5t206.5 -84
t233 -26.5q168 0 298 40.5t255 120.5h249q-120 -154 -337.5 -243.5t-473.5 -89.5q-157 0 -298 36t-261 111t-207 181.5t-136.5 256.5t-49.5 328q0 209 78.5 396t213 321t322 212.5t398.5 78.5q216 0 398 -64.5t303 -174t188 -253.5t67 -303q0 -114 -25.5 -211t-70 -166
t-102.5 -121.5t-126.5 -84t-137.5 -47t-140 -15.5q-96 0 -148.5 38t-54.5 107h-8q-110 -145 -323 -145q-171 0 -270 100.5t-99 272.5q0 239 160 419q138 154 348 154q97 0 165 -36.5t95 -88.5h8zM1087 860q-123 0 -210 -104q-52 -61 -79.5 -139.5t-27.5 -155.5
q0 -102 52.5 -158.5t146.5 -56.5q124 0 211 104q52 61 79 139.5t27 155.5q0 102 -52.5 158.5t-146.5 56.5z" />
    <glyph glyph-name="A" unicode="A" horiz-adv-x="1761" 
d="M1456 0l-156 330h-847l-156 -330h-272l708 1462h295l709 -1462h-281zM554 545h645l-318 674h-9z" />
    <glyph glyph-name="B" unicode="B" horiz-adv-x="1703" 
d="M1401 782q45 -17 80.5 -42t66.5 -67t47.5 -107t16.5 -150q0 -213 -120.5 -314.5t-375.5 -101.5h-952v1462h936q235 0 348 -94t113 -281q0 -239 -160 -296v-9zM1063 862q116 0 169.5 47t53.5 148q0 102 -53.5 148t-169.5 46h-645v-389h645zM1077 211q134 0 197 53.5
t63 171.5t-63 172t-197 54h-659v-451h659z" />
    <glyph glyph-name="C" unicode="C" horiz-adv-x="1777" 
d="M1393 932q-13 154 -139 251t-349 97q-112 0 -208 -33.5t-170.5 -99.5t-117 -172.5t-42.5 -243.5t42.5 -243.5t117 -172.5t170.5 -99.5t208 -33.5q227 0 354.5 103t135.5 276h293q-5 -182 -103 -317.5t-273.5 -208t-406.5 -72.5q-135 0 -255.5 30t-223 92.5t-177.5 152
t-117 216t-42 277.5t42 277.5t117 216t177.5 152t223 92.5t255.5 30q344 0 553.5 -156t224.5 -411h-290z" />
    <glyph glyph-name="D" unicode="D" horiz-adv-x="1759" 
d="M905 1462q764 0 764 -731t-764 -731h-741v1462h741zM854 1247h-436v-1032h436q539 0 539 516t-539 516z" />
    <glyph glyph-name="E" unicode="E" horiz-adv-x="1589" 
d="M418 1243v-373h997v-213h-997v-438h1055v-219h-1309v1462h1282v-219h-1028z" />
    <glyph glyph-name="F" unicode="F" horiz-adv-x="1548" 
d="M1446 1241h-1028v-405h995v-213h-995v-623h-254v1462h1282v-221z" />
    <glyph glyph-name="G" unicode="G" horiz-adv-x="1875" 
d="M1722 778v-778h-213v221q-182 -258 -563 -258q-147 0 -275.5 30t-235.5 92t-183.5 152t-119 216t-42.5 278t41.5 278t116.5 216t179.5 152t231 92t271.5 30q148 0 270.5 -26.5t210.5 -73t152 -112t99.5 -142t47.5 -164.5h-289q-11 46 -31 87t-59 81t-91.5 68t-132 45.5
t-177.5 17.5q-121 0 -222 -33.5t-178 -99.5t-120 -172.5t-43 -243.5t43 -243t121.5 -172.5t183 -100t231.5 -33.5q218 0 336.5 102.5t144.5 286.5h-460v207h755z" />
    <glyph glyph-name="H" unicode="H" horiz-adv-x="1800" 
d="M1382 1462h254v-1462h-254v641h-964v-641h-254v1462h254v-600h964v600z" />
    <glyph glyph-name="I" unicode="I" horiz-adv-x="581" 
d="M418 0h-254v1462h254v-1462z" />
    <glyph glyph-name="J" unicode="J" horiz-adv-x="1593" 
d="M1430 1462v-903q0 -123 -33 -221.5t-93 -168t-146 -116t-189.5 -68.5t-225.5 -22q-153 0 -276 35t-215 106.5t-141.5 186.5t-49.5 268v137h254v-137q0 -190 114.5 -283.5t313.5 -93.5q201 0 317 93.5t116 283.5v903h254z" />
    <glyph glyph-name="K" unicode="K" horiz-adv-x="1710" 
d="M1004 958l677 -958h-315l-557 793l-391 -338v-455h-254v1462h254v-723l821 723h346z" />
    <glyph glyph-name="L" unicode="L" horiz-adv-x="1554" 
d="M1475 0h-1311v1462h254v-1241h1057v-221z" />
    <glyph glyph-name="M" unicode="M" horiz-adv-x="2088" 
d="M1925 1462v-1462h-254v1206h-8l-508 -1206h-221l-518 1225h-8v-1225h-244v1462h416l460 -1116h9l456 1116h420z" />
    <glyph glyph-name="N" unicode="N" horiz-adv-x="1798" 
d="M1391 1462h243v-1462h-288l-932 1130h-8v-1130h-242v1462h297l921 -1120h9v1120z" />
    <glyph glyph-name="O" unicode="O" horiz-adv-x="1863" 
d="M932 1499q179 0 330.5 -48.5t266.5 -141.5t180 -241t65 -337t-65 -337t-180 -241t-266.5 -141.5t-330.5 -48.5t-330.5 48.5t-266.5 141.5t-180 241t-65 337t65 337t180 241t266.5 141.5t330.5 48.5zM932 182q122 0 223.5 33.5t178.5 99.5t120 172.5t43 243.5t-43 243.5
t-120 172.5t-178.5 99.5t-223.5 33.5t-223.5 -33.5t-178.5 -99.5t-120 -172.5t-43 -243.5t43 -243.5t120 -172.5t178.5 -99.5t223.5 -33.5z" />
    <glyph glyph-name="P" unicode="P" horiz-adv-x="1673" 
d="M1110 1462q261 0 382.5 -103.5t121.5 -332.5t-121.5 -333.5t-382.5 -104.5h-692v-588h-254v1462h946zM1077 797q134 0 197 53.5t63 171.5t-63 171.5t-197 53.5h-659v-450h659z" />
    <glyph glyph-name="Q" unicode="Q" horiz-adv-x="1863" 
d="M1774 731q0 -223 -89 -385t-248 -258l117 -199l-208 -86l-117 198q-140 -38 -297 -38q-179 0 -330.5 48.5t-266.5 141.5t-180 241t-65 337t65 337t180 241t266.5 141.5t330.5 48.5t330.5 -48.5t266.5 -141.5t180 -241t65 -337zM1313 298q184 145 184 433q0 137 -43 243.5
t-120 172.5t-178.5 99.5t-223.5 33.5t-223.5 -33.5t-178.5 -99.5t-120 -172.5t-43 -243.5t43 -243.5t120 -172.5t178.5 -99.5t223.5 -33.5q94 0 178 21l-139 235l209 86z" />
    <glyph glyph-name="R" unicode="R" horiz-adv-x="1738" 
d="M1296 614l377 -614h-293l-362 598h-600v-598h-254v1462h977q261 0 382.5 -102.5t121.5 -329.5q0 -343 -349 -407v-9zM1122 821q125 0 183.5 50.5t58.5 158.5t-58.5 158.5t-183.5 50.5h-704v-418h704z" />
    <glyph glyph-name="S" unicode="S" horiz-adv-x="1613" 
d="M1212 1018q-2 64 -27 112.5t-64.5 78t-97 48.5t-119 26t-136.5 7q-181 0 -285 -51t-104 -160q0 -86 55.5 -124.5t165.5 -51.5l524 -63q89 -11 157.5 -35t128.5 -70t92 -124t32 -185q0 -124 -53.5 -214.5t-154.5 -144t-233.5 -79t-301.5 -25.5q-130 0 -236.5 15.5
t-202 53.5t-161 97.5t-105 152t-41.5 212.5h272q3 -75 29.5 -132t68.5 -93t103.5 -58t128 -30.5t148.5 -8.5q211 0 333 61t121 177q-1 55 -18 92.5t-51.5 60t-74.5 34.5t-99 19l-504 64q-89 12 -158 36t-126.5 67t-88.5 113.5t-31 166.5q0 112 50 197t141.5 136.5t212 77
t268.5 25.5q119 0 221 -15t193.5 -50.5t156 -89.5t103.5 -137t41 -189h-273z" />
    <glyph glyph-name="T" unicode="T" horiz-adv-x="1597" 
d="M1542 1462v-223h-616v-1239h-254v1239h-617v223h1487z" />
    <glyph glyph-name="U" unicode="U" horiz-adv-x="1794" 
d="M1376 1462h254v-903q0 -153 -53.5 -268t-151.5 -186.5t-230.5 -106.5t-297.5 -35t-297.5 35t-230.5 106.5t-151.5 186.5t-53.5 268v903h254v-895q0 -100 34.5 -175t99 -121.5t151 -69.5t194.5 -23t194.5 23t151 69.5t99 121.5t34.5 175v895z" />
    <glyph glyph-name="V" unicode="V" horiz-adv-x="1658" 
d="M303 1462l526 -1163h9l526 1163h281l-689 -1462h-254l-688 1462h289z" />
    <glyph glyph-name="W" unicode="W" horiz-adv-x="2269" 
d="M1774 0h-295l-340 1135h-9l-344 -1135h-292l-465 1462h272l338 -1147h8l348 1147h285l348 -1147h8l336 1147h269z" />
    <glyph glyph-name="X" unicode="X" horiz-adv-x="1679" 
d="M1004 770l657 -770h-332l-491 586l-492 -586h-326l658 770l-600 692h321l443 -516l452 516h310z" />
    <glyph glyph-name="Y" unicode="Y" horiz-adv-x="1644" 
d="M1630 1462l-680 -911v-551h-254v547l-682 915h308l501 -690l512 690h295z" />
    <glyph glyph-name="Z" unicode="Z" horiz-adv-x="1611" 
d="M1491 1255l-1016 -1032h1020v-223h-1403v207l1014 1032h-954v223h1339v-207z" />
    <glyph glyph-name="bracketleft" unicode="[" horiz-adv-x="759" 
d="M412 1311v-1467h270v-196h-518v1859h518v-196h-270z" />
    <glyph glyph-name="backslash" unicode="\" horiz-adv-x="897" 
d="M287 1462l551 -1462h-228l-551 1462h228z" />
    <glyph glyph-name="bracketright" unicode="]" horiz-adv-x="757" 
d="M346 1311h-270v196h518v-1859h-518v196h270v1467z" />
    <glyph glyph-name="asciicircum" unicode="^" horiz-adv-x="1060" 
d="M627 1436l358 -713h-199l-251 518h-9l-252 -518h-198l358 713h193z" />
    <glyph glyph-name="underscore" unicode="_" horiz-adv-x="1527" 
d="M1532 -215v-123h-1536v123h1536z" />
    <glyph glyph-name="grave" unicode="`" horiz-adv-x="874" 
d="M164 1532h358l189 -318h-219z" />
    <glyph glyph-name="a" unicode="a" horiz-adv-x="1368" 
d="M1227 178q0 -130 30 -166v-12h-243q-31 31 -31 133v31q-153 -199 -485 -199q-88 0 -165 21.5t-137.5 63t-95 109t-34.5 154.5q0 84 26.5 148.5t73.5 103.5t102.5 61t122.5 29l434 45q75 8 109.5 34t34.5 79q0 60 -68 93.5t-209 33.5q-135 0 -216 -42t-87 -124h-260
q2 96 48 167.5t125.5 113.5t176.5 62t211 20q537 0 537 -324v-635zM977 487v68q-28 -19 -90 -27l-385 -49q-85 -10 -131.5 -47t-46.5 -115q0 -165 227 -165q55 0 110.5 9.5t113.5 34t102 61t72 96t28 134.5z" />
    <glyph glyph-name="b" unicode="b" horiz-adv-x="1480" 
d="M399 946q63 84 171 133t245 49q264 0 425 -154.5t161 -426.5t-161 -427t-425 -155q-139 0 -249.5 51.5t-172.5 141.5h-8v-158h-244v1483h250v-537h8zM764 170q181 0 280 95.5t99 281.5t-99 281.5t-280 95.5q-175 0 -277 -103t-102 -274t102 -274t277 -103z" />
    <glyph glyph-name="c" unicode="c" horiz-adv-x="1423" 
d="M715 170q312 0 354 240h274q-14 -96 -56 -174.5t-116 -140.5t-190 -96t-266 -34q-295 0 -465 155t-170 429q0 278 170 433t465 155q121 0 219.5 -22.5t168 -61.5t120 -95t78 -120.5t38.5 -139.5h-272q-43 234 -352 234q-176 0 -276.5 -98t-100.5 -285q0 -184 101 -281.5
t276 -97.5z" />
    <glyph glyph-name="d" unicode="d" horiz-adv-x="1480" 
d="M1081 946h9v537h249v-1483h-243v158h-9q-62 -91 -172 -142t-249 -51q-264 0 -425 155t-161 427t161 426.5t425 154.5q137 0 244.5 -49t170.5 -133zM717 170q175 0 277 103t102 274t-102 274t-277 103q-181 0 -280 -95.5t-99 -281.5t99 -281.5t280 -95.5z" />
    <glyph glyph-name="e" unicode="e" 
d="M1341 551q0 -28 -4 -64h-1001q15 -162 115.5 -243.5t271.5 -81.5q154 0 235 55.5t95 128.5h276q-8 -58 -33 -110.5t-73 -103t-114.5 -87t-165.5 -58.5t-220 -22q-300 0 -471.5 155t-171.5 431q0 275 169.5 430.5t461.5 155.5t461 -155.5t169 -430.5zM711 940
q-146 0 -241 -66.5t-124 -195.5h729q-29 130 -124 196t-240 66z" />
    <glyph glyph-name="f" unicode="f" horiz-adv-x="862" 
d="M698 1323q-50 0 -85 -6t-67 -22t-48.5 -49.5t-16.5 -84.5v-59h314v-180h-314v-922h-250v922h-196v180h196v78q0 186 108 264t320 78q73 0 160 -15v-194q-77 10 -121 10z" />
    <glyph glyph-name="g" unicode="g" horiz-adv-x="1462" 
d="M1077 1102h244v-1057q0 -90 -14.5 -156t-54 -125.5t-106 -96.5t-173 -58t-252.5 -21q-140 0 -247.5 22.5t-172 58t-105.5 86.5t-56.5 101t-16.5 109h270q2 -24 10.5 -46.5t31.5 -47.5t58 -43.5t93.5 -30.5t134.5 -12q106 0 176.5 17.5t107.5 54t51.5 80.5t14.5 108v191
h-8q-66 -77 -173 -125t-239 -48q-257 0 -414 142t-157 391t157 390.5t414 141.5q136 0 243.5 -48.5t174.5 -131.5h8v154zM705 268q171 0 270.5 89.5t99.5 238.5t-99.5 238.5t-270.5 89.5q-174 0 -270.5 -83.5t-96.5 -244.5t96.5 -244.5t270.5 -83.5z" />
    <glyph glyph-name="h" unicode="h" horiz-adv-x="1441" 
d="M827 1128q103 0 187.5 -22.5t149 -68t100.5 -121.5t36 -177v-739h-249v651q0 144 -77.5 208.5t-230.5 64.5q-66 0 -126.5 -18.5t-112 -56.5t-82.5 -104.5t-31 -154.5v-590h-250v1483h250v-522h8q145 167 428 167z" />
    <glyph glyph-name="i" unicode="i" horiz-adv-x="532" 
d="M137 1286v205h258v-205h-258zM141 0v1102h250v-1102h-250z" />
    <glyph glyph-name="j" unicode="j" horiz-adv-x="532" 
d="M137 1286v205h258v-205h-258zM-4 -199q77 0 111 25.5t34 95.5v1180h250v-1235q0 -154 -77.5 -216.5t-266.5 -62.5q-96 0 -172 13v211q57 -11 121 -11z" />
    <glyph glyph-name="k" unicode="k" horiz-adv-x="1306" 
d="M758 686l524 -686h-305l-402 530l-184 -159v-371h-250v1483h250v-838l520 457h326z" />
    <glyph glyph-name="l" unicode="l" horiz-adv-x="532" 
d="M141 0v1483h250v-1483h-250z" />
    <glyph glyph-name="m" unicode="m" horiz-adv-x="2244" 
d="M385 1102v-146h8q129 172 410 172q138 0 242.5 -44t158.5 -132q71 90 190.5 133t262.5 43q94 0 173 -22t141 -67t97 -120t35 -174v-745h-250v674q0 250 -282 250q-58 0 -113 -17.5t-103.5 -52.5t-78 -96.5t-29.5 -141.5v-616h-250v674q0 250 -282 250q-58 0 -113 -17.5
t-103.5 -52.5t-78 -96.5t-29.5 -141.5v-616h-250v1102h244z" />
    <glyph glyph-name="n" unicode="n" horiz-adv-x="1441" 
d="M385 1102v-141h8q154 167 434 167q103 0 187.5 -22.5t149 -68t100.5 -121.5t36 -177v-739h-249v651q0 144 -77.5 208.5t-230.5 64.5q-66 0 -126.5 -18.5t-112 -56.5t-82.5 -104.5t-31 -154.5v-590h-250v1102h244z" />
    <glyph glyph-name="o" unicode="o" horiz-adv-x="1449" 
d="M725 1137q302 0 473.5 -155t171.5 -431t-171.5 -431t-473.5 -155t-473.5 155t-171.5 431t171.5 431t473.5 155zM725 170q183 0 285 97.5t102 283.5t-102 283.5t-285 97.5t-285 -97.5t-102 -283.5t102 -283.5t285 -97.5z" />
    <glyph glyph-name="p" unicode="p" horiz-adv-x="1480" 
d="M399 147h-8v-532h-250v1487h244v-166h8q62 90 172.5 141t249.5 51q264 0 425 -154.5t161 -426.5t-161 -427t-425 -155q-137 0 -245 49t-171 133zM764 924q-175 0 -277 -103t-102 -274t102 -274t277 -103q181 0 280 95.5t99 281.5t-99 281.5t-280 95.5z" />
    <glyph glyph-name="q" unicode="q" horiz-adv-x="1480" 
d="M1081 147q-63 -84 -170.5 -133t-244.5 -49q-264 0 -425 155t-161 427t161 426.5t425 154.5q139 0 249 -51t172 -141h9v166h243v-1487h-249v532h-9zM717 924q-181 0 -280 -95.5t-99 -281.5t99 -281.5t280 -95.5q175 0 277 103t102 274t-102 274t-277 103z" />
    <glyph glyph-name="r" unicode="r" horiz-adv-x="1011" 
d="M141 1102h244v-146h8q153 174 430 174q80 0 133 -16v-246q-83 19 -159 19q-61 0 -115.5 -9t-109 -32t-93.5 -58.5t-63.5 -92.5t-24.5 -130v-565h-250v1102z" />
    <glyph glyph-name="s" unicode="s" horiz-adv-x="1329" 
d="M950 768q-11 178 -321 178q-138 0 -208.5 -34t-70.5 -93q0 -54 37.5 -81.5t128.5 -37.5l397 -47q58 -6 104.5 -18.5t91 -36.5t74.5 -59t48 -90t18 -125q0 -359 -590 -359q-104 0 -189.5 11.5t-164 40t-133 73.5t-88 117t-35.5 166h256q10 -215 357 -215q156 0 240.5 39.5
t84.5 111.5q0 62 -40 92.5t-134 42.5l-383 50q-58 7 -104.5 20t-91 36.5t-74.5 57t-48 83.5t-18 114q0 112 72 188t189.5 110t273.5 34q118 0 218 -20.5t181.5 -62.5t128.5 -115t49 -171h-256z" />
    <glyph glyph-name="t" unicode="t" horiz-adv-x="872" 
d="M614 195q100 0 172 16v-211q-81 -18 -196 -18q-200 0 -281.5 68t-81.5 231v641h-196v180h196v305h250v-305h314v-180h-314v-603q0 -68 33.5 -96t103.5 -28z" />
    <glyph glyph-name="u" unicode="u" horiz-adv-x="1441" 
d="M1057 0v141h-8q-155 -168 -435 -168q-103 0 -187.5 22.5t-149 68t-100.5 121.5t-36 177v740h250v-651q0 -144 77 -208.5t230 -64.5q66 0 126.5 18.5t112.5 56.5t83 104.5t31 154.5v590h249v-1102h-243z" />
    <glyph glyph-name="v" unicode="v" horiz-adv-x="1372" 
d="M1065 1102h276l-510 -1102h-290l-510 1102h276l373 -846h8z" />
    <glyph glyph-name="w" unicode="w" horiz-adv-x="2150" 
d="M2109 1102l-450 -1102h-264l-310 821h-8l-309 -821h-264l-463 1102h268l324 -823h8l307 815h266l308 -818h8l311 826h268z" />
    <glyph glyph-name="x" unicode="x" horiz-adv-x="1376" 
d="M848 582l487 -582h-315l-330 412l-336 -412h-313l489 582l-430 520h316l274 -350l271 350h313z" />
    <glyph glyph-name="y" unicode="y" horiz-adv-x="1372" 
d="M1341 1102l-557 -1204q-80 -173 -188.5 -241.5t-284.5 -68.5q-118 0 -194 11v217q112 -15 176 -15q151 0 205 121l41 90l-508 1090h276l373 -846h8l377 846h276z" />
    <glyph glyph-name="z" unicode="z" horiz-adv-x="1259" 
d="M1159 0h-1083v207l733 696h-686v199h1036v-205l-733 -700h733v-197z" />
    <glyph glyph-name="braceleft" unicode="{" horiz-adv-x="768" 
d="M487 831q0 -217 -182 -249v-9q182 -31 182 -249v-332q0 -80 23.5 -114t99.5 -34h82v-196h-160q-292 0 -292 262v364q0 111 -42.5 156t-121.5 45v205q79 0 121.5 45t42.5 156v364q0 262 292 262h160v-196h-82q-76 0 -99.5 -34t-23.5 -114v-332z" />
    <glyph glyph-name="bar" unicode="|" horiz-adv-x="561" 
d="M397 1634v-2099h-233v2099h233z" />
    <glyph glyph-name="braceright" unicode="}" horiz-adv-x="768" 
d="M281 831v332q0 80 -23.5 114t-99.5 34h-82v196h160q292 0 292 -262v-364q0 -111 42.5 -156t121.5 -45v-205q-79 0 -121.5 -45t-42.5 -156v-364q0 -262 -292 -262h-160v196h82q76 0 99.5 34t23.5 114v332q0 218 182 249v9q-182 32 -182 249z" />
    <glyph glyph-name="asciitilde" unicode="~" 
d="M995 664q131 0 256 143v-217q-114 -131 -256 -131q-107 0 -223 59l-147 74q-112 57 -199 57q-146 0 -256 -176v217q103 164 256 164q87 0 199 -57l147 -74q116 -59 223 -59z" />
    <glyph glyph-name="uni00A0" unicode="&#xa0;" horiz-adv-x="299" 
 />
    <glyph glyph-name="exclamdown" unicode="&#xa1;" horiz-adv-x="626" 
d="M164 1100h299v-279h-299v279zM401 662l39 -639v-385h-254v385l39 639h176z" />
    <glyph glyph-name="cent" unicode="&#xa2;" horiz-adv-x="1423" 
d="M1343 410q-13 -91 -51.5 -166t-105.5 -136t-171.5 -97.5t-238.5 -43.5v-211h-119v211q-269 15 -423 168.5t-154 413.5q0 263 153.5 417t423.5 169v163h119v-163q134 -7 238 -43.5t170 -96t104 -133.5t51 -164h-272q-39 209 -291 231v-757q255 22 293 238h274zM338 549
q0 -168 84.5 -264.5t234.5 -111.5v756q-150 -15 -234.5 -112t-84.5 -268z" />
    <glyph glyph-name="sterling" unicode="&#xa3;" horiz-adv-x="1519" 
d="M1130 176q54 0 90.5 3t95 23t105.5 58v-229q-97 -60 -258 -60q-65 0 -128.5 14t-127.5 43t-108 53t-109 64q-82 -174 -305 -174q-134 0 -207.5 60.5t-73.5 175.5q0 114 69.5 172.5t186.5 58.5q80 0 152 -32q-6 97 -68 186h-370v137h270q-78 87 -121 164t-43 166
q0 105 44.5 183.5t125 126t183.5 70.5t229 23q122 0 223.5 -24.5t186 -76.5t138.5 -143.5t70 -216.5h-258q-19 148 -108 211.5t-242 63.5q-332 0 -332 -240q0 -27 8.5 -56t17.5 -49.5t32 -53.5t34 -47t43 -52.5t41 -48.5h498v-137h-412q50 -83 50 -186q0 -62 -4 -89
q10 -5 49 -25.5t51 -26.5t46 -22.5t50 -22.5t45 -17t48.5 -15t44.5 -8t48 -4zM385 113q46 0 79.5 33.5t43.5 103.5q-73 49 -127 49q-51 0 -78 -25.5t-27 -68.5t27.5 -67.5t81.5 -24.5z" />
    <glyph glyph-name="currency" unicode="&#xa4;" horiz-adv-x="1392" 
d="M1229 754q0 -160 -94 -291l127 -125l-144 -129l-125 121q-134 -88 -297 -88t-297 88l-125 -121l-143 129l127 125q-94 131 -94 291q0 159 94 290l-127 125l143 129l125 -120q134 88 297 88t297 -88l125 120l144 -129l-127 -125q94 -131 94 -290zM696 416q136 0 233 99
t97 239t-97 239t-233 99t-232.5 -99t-96.5 -239t96.5 -239t232.5 -99z" />
    <glyph glyph-name="yen" unicode="&#xa5;" horiz-adv-x="1611" 
d="M1597 1434l-435 -584h239v-137h-341l-99 -133h440v-138h-469v-442h-250v442h-475v138h442l-99 133h-343v137h241l-434 584h301l492 -676l502 676h288z" />
    <glyph glyph-name="brokenbar" unicode="&#xa6;" horiz-adv-x="561" 
d="M397 1634v-895h-233v895h233zM397 430v-895h-233v895h233z" />
    <glyph glyph-name="section" unicode="&#xa7;" horiz-adv-x="1474" 
d="M1475 442q0 -199 -179 -286q25 -61 25 -136q0 -397 -596 -397q-104 0 -189.5 13.5t-161.5 46t-128 84t-82.5 131t-32.5 182.5h250q3 -65 22.5 -113t50 -77.5t75.5 -48t92.5 -25t107.5 -6.5q154 0 242.5 50.5t87.5 143.5q-1 39 -12.5 67t-35.5 46t-46.5 28t-59.5 21
l-604 184q-51 15 -86.5 29t-79.5 41t-71 59t-45.5 82t-18.5 113q0 204 211 284q-37 63 -37 160t40.5 170.5t114.5 117.5t170 65.5t214 21.5q91 0 169 -13t149 -43.5t121 -77t81 -118t33 -162.5h-252q-2 54 -19.5 95t-45 66.5t-67.5 41t-82 21.5t-93 6q-127 0 -201 -44
t-74 -132q0 -71 35 -104.5t98 -51.5l606 -176q31 -9 55 -17.5t57.5 -24t58.5 -33.5t51 -46t43 -61t28 -78.5t11 -98.5zM391 547l625 -185q110 -34 164 -69q53 50 53 127q0 38 -11.5 67.5t-26 47t-42 32.5t-44.5 21.5t-48 15.5l-588 176q-75 22 -129 54q-106 -43 -106 -150
q0 -31 13 -54.5t37.5 -39t47.5 -25t55 -18.5z" />
    <glyph glyph-name="dieresis" unicode="&#xa8;" horiz-adv-x="1089" 
d="M164 1286v205h258v-205h-258zM668 1286v205h258v-205h-258z" />
    <glyph glyph-name="copyright" unicode="&#xa9;" horiz-adv-x="1765" 
d="M883 -33q-161 0 -308 60.5t-253 163t-169 244t-63 296.5t63 296.5t169 244t253 163t308 60.5t308 -60.5t253 -163t168.5 -244t62.5 -296.5t-62.5 -296.5t-168.5 -244t-253 -163t-308 -60.5zM883 94q134 0 256.5 50.5t210.5 135.5t140 203t52 248t-52 248t-140 203
t-210.5 135.5t-256.5 50.5t-256.5 -50.5t-211 -135.5t-140.5 -203t-52 -248t52 -248t140.5 -203t211 -135.5t256.5 -50.5zM1298 616q-4 -67 -31.5 -125.5t-77.5 -105t-128.5 -73.5t-175.5 -27q-195 0 -313.5 116t-118.5 332q0 214 118.5 329.5t313.5 115.5q184 0 287.5 -86
t113.5 -207h-203q-23 133 -198 133q-105 0 -167.5 -70t-62.5 -215q0 -148 62.5 -218.5t167.5 -70.5q191 0 211 172h202z" />
    <glyph glyph-name="ordfeminine" unicode="&#xaa;" horiz-adv-x="962" 
d="M850 901q0 -77 18 -100v-6h-190q-19 19 -19 75v21q-93 -121 -301 -121q-113 0 -191.5 55.5t-78.5 159.5q0 189 207 211l272 29q44 5 63 18t19 41q0 68 -153 68q-70 0 -115 -22.5t-49 -65.5h-203q2 61 32 105.5t82 69.5t114.5 36.5t138.5 11.5q65 0 117 -6t97.5 -20
t75.5 -37t47 -58.5t17 -81.5v-383zM657 1090v32q-10 -7 -61 -16l-209 -29q-48 -7 -73 -27t-25 -63q0 -88 123 -88q40 0 80 10t78.5 30.5t62.5 60t24 90.5zM61 205h836v-205h-836v205z" />
    <glyph glyph-name="guillemotleft" unicode="&#xab;" horiz-adv-x="1015" 
d="M92 705l375 323v-274l-227 -191v-8l227 -190v-275l-375 324v291zM549 705l375 323v-274l-228 -191v-8l228 -190v-275l-375 324v291z" />
    <glyph glyph-name="logicalnot" unicode="&#xac;" 
d="M1251 860v-545h-213v340h-868v205h1081z" />
    <glyph glyph-name="registered" unicode="&#xae;" horiz-adv-x="1765" 
d="M883 1495q161 0 308 -60.5t253 -163t168.5 -244t62.5 -296.5t-62.5 -296.5t-168.5 -244t-253 -163t-308 -60.5t-308 60.5t-253 163t-169 244t-63 296.5t63 296.5t169 244t253 163t308 60.5zM883 94q133 0 255 50.5t210.5 136t141 203.5t52.5 247t-52.5 247t-141 203.5
t-210.5 136t-255 50.5q-178 0 -330 -85.5t-241 -232.5t-89 -319t89 -319t241 -232.5t330 -85.5zM1268 887q0 -99 -47 -164.5t-138 -91.5l207 -328h-225l-188 309h-168v-309h-197v856h436q152 0 236 -73t84 -199zM709 1012v-254h202q76 0 116 34t40 95q0 58 -40.5 91.5
t-115.5 33.5h-202z" />
    <glyph glyph-name="macron" unicode="&#xaf;" horiz-adv-x="1097" 
d="M934 1276h-770v184h770v-184z" />
    <glyph glyph-name="degree" unicode="&#xb0;" horiz-adv-x="749" 
d="M375 834q-134 0 -225 87t-91 224t91 224t225 87t224.5 -87t90.5 -224t-90.5 -224t-224.5 -87zM375 967q78 0 124 50t46 128t-46 128t-124 50t-124 -50t-46 -128t46 -128t124 -50z" />
    <glyph glyph-name="plusminus" unicode="&#xb1;" 
d="M1251 842v-205h-434v-367h-213v367h-434v205h434v366h213v-366h434zM170 205h1081v-205h-1081v205z" />
    <glyph glyph-name="uni00B2" unicode="&#xb2;" horiz-adv-x="1036" 
d="M428 858q-120 -48 -143 -102h647v-146h-862v27q0 61 19 113t46 87t69.5 66t77.5 48.5t83 37.5l202 84q81 34 119.5 64t38.5 77q0 119 -207 119q-45 0 -84.5 -8t-75.5 -26.5t-58.5 -54t-25.5 -85.5h-200q2 70 26 124.5t63.5 90.5t95.5 59.5t119.5 33.5t137.5 10
q94 0 165.5 -12.5t128 -40.5t86.5 -79t30 -124q0 -47 -15.5 -86t-36.5 -64.5t-60.5 -50t-69 -37.5t-80.5 -33z" />
    <glyph glyph-name="uni00B3" unicode="&#xb3;" horiz-adv-x="1021" 
d="M782 1051q77 -14 118.5 -65.5t41.5 -137.5q0 -142 -106 -201t-340 -59q-213 0 -327 71.5t-120 229.5h201q7 -84 69.5 -121t176.5 -37q117 0 180 27t63 92q0 70 -49.5 99.5t-161.5 29.5h-137v133h152q93 0 134.5 27t41.5 90q0 56 -62 81t-161 25q-95 0 -155 -33t-69 -104
h-194q9 145 121.5 212t296.5 67q204 0 310.5 -56t106.5 -184q0 -73 -34.5 -120.5t-96.5 -61.5v-4z" />
    <glyph glyph-name="acute" unicode="&#xb4;" horiz-adv-x="874" 
d="M711 1532l-328 -318h-219l188 318h359z" />
    <glyph glyph-name="paragraph" unicode="&#xb6;" 
d="M1257 1462v-1839h-204v1651h-205v-1651h-205v934h-31q-267 0 -401.5 116.5t-134.5 336.5q0 219 136 335.5t404 116.5h641z" />
    <glyph glyph-name="periodcentered" unicode="&#xb7;" horiz-adv-x="507" 
d="M254 469q-74 0 -126 52.5t-52 125.5t52 125.5t126 52.5t126 -52.5t52 -125.5t-52 -125.5t-126 -52.5z" />
    <glyph glyph-name="cedilla" unicode="&#xb8;" horiz-adv-x="905" 
d="M164 -438v137h8q127 -37 217 -37q117 0 117 72q0 71 -117 71q-30 0 -77.5 -5t-61.5 -11h-8v72l139 217h156l-107 -166q44 6 82 6q114 0 171.5 -48.5t57.5 -135.5q0 -199 -338 -199q-137 0 -239 27z" />
    <glyph glyph-name="uni00B9" unicode="&#xb9;" horiz-adv-x="686" 
d="M522 1454v-844h-186v578h-270v133h73q102 0 152.5 32t73.5 101h157z" />
    <glyph glyph-name="ordmasculine" unicode="&#xba;" horiz-adv-x="958" 
d="M479 1487q200 0 309 -94t109 -265q0 -170 -109 -264t-309 -94t-309 94t-109 264q0 171 109 265t309 94zM479 920q103 0 160 53.5t57 154.5q0 102 -57 156.5t-160 54.5t-160 -54.5t-57 -156.5q0 -101 57 -154.5t160 -53.5zM61 205h836v-205h-836v205z" />
    <glyph glyph-name="guillemotright" unicode="&#xbb;" horiz-adv-x="1015" 
d="M467 705v-291l-375 -324v275l227 190v8l-227 191v274zM924 705v-291l-375 -324v275l227 190v8l-227 191v274z" />
    <glyph glyph-name="questiondown" unicode="&#xbf;" horiz-adv-x="1316" 
d="M791 1100v-279h-299v279h299zM999 106h258q-2 -130 -52 -227.5t-136.5 -156t-195.5 -87t-240 -28.5q-261 0 -417.5 104.5t-156.5 290.5q0 71 16 125.5t49.5 95t69 68t89.5 59.5l102 60q81 47 108 99t27 142v11h242v-52q0 -89 -25.5 -153t-68 -106.5t-119.5 -92.5l-92 -59
q-68 -43 -99.5 -87.5t-31.5 -115.5q0 -94 85.5 -142.5t219.5 -48.5q69 0 128.5 13.5t114.5 45.5t88.5 93.5t36.5 148.5z" />
    <glyph glyph-name="Agrave" unicode="&#xc0;" horiz-adv-x="1761" 
d="M991 1579h-219l-328 317h359zM1456 0l-156 330h-847l-156 -330h-272l708 1462h295l709 -1462h-281zM554 545h645l-318 674h-9z" />
    <glyph glyph-name="Aacute" unicode="&#xc1;" horiz-adv-x="1761" 
d="M1317 1896l-328 -317h-219l188 317h359zM1456 0l-156 330h-847l-156 -330h-272l708 1462h295l709 -1462h-281zM554 545h645l-318 674h-9z" />
    <glyph glyph-name="Acircumflex" unicode="&#xc2;" horiz-adv-x="1761" 
d="M893 1757l-152 -178h-295l299 317h304l299 -317h-295l-152 178h-8zM1456 0l-156 330h-847l-156 -330h-272l708 1462h295l709 -1462h-281zM554 545h645l-318 674h-9z" />
    <glyph glyph-name="Atilde" unicode="&#xc3;" horiz-adv-x="1761" 
d="M700 1679q-33 0 -46.5 -22t-12.5 -82h-201q0 86 20.5 148t56.5 95t75.5 47.5t85.5 14.5q47 0 105 -19.5t103 -43t94 -43t79 -19.5q33 0 46.5 23t12.5 80h201q0 -86 -20.5 -148t-56.5 -94.5t-75.5 -47t-85.5 -14.5q-47 0 -105 19.5t-103 43t-94 43t-79 19.5zM1456 0
l-156 330h-847l-156 -330h-272l708 1462h295l709 -1462h-281zM554 545h645l-318 674h-9z" />
    <glyph glyph-name="Adieresis" unicode="&#xc4;" horiz-adv-x="1761" 
d="M758 1800v-205h-258v205h258zM1262 1800v-205h-258v205h258zM1456 0l-156 330h-847l-156 -330h-272l708 1462h295l709 -1462h-281zM554 545h645l-318 674h-9z" />
    <glyph glyph-name="Aring" unicode="&#xc5;" horiz-adv-x="1761" 
d="M883 1532q-126 0 -211.5 67t-85.5 177t85.5 176.5t211.5 66.5t211.5 -66.5t85.5 -176.5t-85.5 -177t-211.5 -67zM883 1876q-49 0 -83 -27.5t-34 -72.5t34 -73t83 -28t82.5 28t33.5 73t-33.5 72.5t-82.5 27.5zM1456 0l-156 330h-847l-156 -330h-272l708 1462h295
l709 -1462h-281zM554 545h645l-318 674h-9z" />
    <glyph glyph-name="AE" unicode="&#xc6;" horiz-adv-x="2729" 
d="M1579 219h1034v-219h-1278v330h-816l-222 -330h-297l999 1462h1588v-219h-1008v-373h977v-213h-977v-438zM663 545h672v698h-202z" />
    <glyph glyph-name="Ccedilla" unicode="&#xc7;" horiz-adv-x="1777" 
d="M1688 561q-7 -257 -196 -416.5t-505 -179.5l-35 -53q43 6 82 6q114 0 172 -48.5t58 -135.5q0 -199 -338 -199q-138 0 -240 27v137h8q127 -37 217 -37q117 0 117 72q0 71 -117 71q-30 0 -77.5 -5t-61.5 -11h-8v72l70 104q-157 10 -290.5 63.5t-235.5 146.5t-160 235.5
t-58 320.5q0 151 42 277.5t117 216t177.5 152t223 92.5t255.5 30q344 0 553.5 -156t224.5 -411h-290q-13 154 -139 251t-349 97q-112 0 -208 -33.5t-170.5 -99.5t-117 -172.5t-42.5 -243.5t42.5 -243.5t117 -172.5t170.5 -99.5t208 -33.5q227 0 354.5 103t135.5 276h293z
" />
    <glyph glyph-name="Egrave" unicode="&#xc8;" horiz-adv-x="1589" 
d="M369 1896h358l188 -317h-219zM418 1243v-373h997v-213h-997v-438h1055v-219h-1309v1462h1282v-219h-1028z" />
    <glyph glyph-name="Eacute" unicode="&#xc9;" horiz-adv-x="1589" 
d="M1241 1896l-328 -317h-219l189 317h358zM418 1243v-373h997v-213h-997v-438h1055v-219h-1309v1462h1282v-219h-1028z" />
    <glyph glyph-name="Ecircumflex" unicode="&#xca;" horiz-adv-x="1589" 
d="M977 1579l-152 178h-8l-151 -178h-295l299 317h303l299 -317h-295zM418 1243v-373h997v-213h-997v-438h1055v-219h-1309v1462h1282v-219h-1028z" />
    <glyph glyph-name="Edieresis" unicode="&#xcb;" horiz-adv-x="1589" 
d="M424 1595v205h258v-205h-258zM928 1595v205h258v-205h-258zM418 1243v-373h997v-213h-997v-438h1055v-219h-1309v1462h1282v-219h-1028z" />
    <glyph glyph-name="Igrave" unicode="&#xcc;" horiz-adv-x="581" 
d="M-145 1896h358l188 -317h-219zM418 0h-254v1462h254v-1462z" />
    <glyph glyph-name="Iacute" unicode="&#xcd;" horiz-adv-x="581" 
d="M727 1896l-328 -317h-219l189 317h358zM418 0h-254v1462h254v-1462z" />
    <glyph glyph-name="Icircumflex" unicode="&#xce;" horiz-adv-x="581" 
d="M463 1579l-152 178h-8l-151 -178h-295l299 317h303l299 -317h-295zM418 0h-254v1462h254v-1462z" />
    <glyph glyph-name="Idieresis" unicode="&#xcf;" horiz-adv-x="581" 
d="M-90 1595v205h258v-205h-258zM414 1595v205h258v-205h-258zM418 0h-254v1462h254v-1462z" />
    <glyph glyph-name="Eth" unicode="&#xd0;" horiz-adv-x="1787" 
d="M934 1462q764 0 764 -731t-764 -731h-741v633h-152v196h152v633h741zM883 215q538 0 538 516t-538 516h-437v-418h400v-196h-400v-418h437z" />
    <glyph glyph-name="Ntilde" unicode="&#xd1;" horiz-adv-x="1798" 
d="M1100 1554q-47 0 -105 19.5t-103 43t-94 43t-79 19.5q-34 0 -47.5 -22t-12.5 -82h-200q0 86 20.5 148t56 95t75 47.5t85.5 14.5q47 0 105 -19.5t103 -43t94 -43t79 -19.5q33 0 47 23t13 80h200q0 -86 -20.5 -148t-56 -94.5t-75 -47t-85.5 -14.5zM1391 1462h243v-1462
h-288l-932 1130h-8v-1130h-242v1462h297l921 -1120h9v1120z" />
    <glyph glyph-name="Ograve" unicode="&#xd2;" horiz-adv-x="1863" 
d="M496 1896h358l188 -317h-219zM932 1499q179 0 330.5 -48.5t266.5 -141.5t180 -241t65 -337t-65 -337t-180 -241t-266.5 -141.5t-330.5 -48.5t-330.5 48.5t-266.5 141.5t-180 241t-65 337t65 337t180 241t266.5 141.5t330.5 48.5zM932 182q122 0 223.5 33.5t178.5 99.5
t120 172.5t43 243.5t-43 243.5t-120 172.5t-178.5 99.5t-223.5 33.5t-223.5 -33.5t-178.5 -99.5t-120 -172.5t-43 -243.5t43 -243.5t120 -172.5t178.5 -99.5t223.5 -33.5z" />
    <glyph glyph-name="Oacute" unicode="&#xd3;" horiz-adv-x="1863" 
d="M1368 1896l-328 -317h-219l189 317h358zM932 1499q179 0 330.5 -48.5t266.5 -141.5t180 -241t65 -337t-65 -337t-180 -241t-266.5 -141.5t-330.5 -48.5t-330.5 48.5t-266.5 141.5t-180 241t-65 337t65 337t180 241t266.5 141.5t330.5 48.5zM932 182q122 0 223.5 33.5
t178.5 99.5t120 172.5t43 243.5t-43 243.5t-120 172.5t-178.5 99.5t-223.5 33.5t-223.5 -33.5t-178.5 -99.5t-120 -172.5t-43 -243.5t43 -243.5t120 -172.5t178.5 -99.5t223.5 -33.5z" />
    <glyph glyph-name="Ocircumflex" unicode="&#xd4;" horiz-adv-x="1863" 
d="M1104 1579l-152 178h-8l-151 -178h-295l299 317h303l299 -317h-295zM932 1499q179 0 330.5 -48.5t266.5 -141.5t180 -241t65 -337t-65 -337t-180 -241t-266.5 -141.5t-330.5 -48.5t-330.5 48.5t-266.5 141.5t-180 241t-65 337t65 337t180 241t266.5 141.5t330.5 48.5z
M932 182q122 0 223.5 33.5t178.5 99.5t120 172.5t43 243.5t-43 243.5t-120 172.5t-178.5 99.5t-223.5 33.5t-223.5 -33.5t-178.5 -99.5t-120 -172.5t-43 -243.5t43 -243.5t120 -172.5t178.5 -99.5t223.5 -33.5z" />
    <glyph glyph-name="Otilde" unicode="&#xd5;" horiz-adv-x="1863" 
d="M1133 1554q-47 0 -105 19.5t-103 43t-94 43t-79 19.5q-34 0 -47.5 -22t-12.5 -82h-200q0 86 20.5 148t56 95t75 47.5t85.5 14.5q47 0 105 -19.5t103 -43t94 -43t79 -19.5q33 0 46.5 23t12.5 80h201q0 -86 -20.5 -148t-56 -94.5t-75 -47t-85.5 -14.5zM932 1499
q179 0 330.5 -48.5t266.5 -141.5t180 -241t65 -337t-65 -337t-180 -241t-266.5 -141.5t-330.5 -48.5t-330.5 48.5t-266.5 141.5t-180 241t-65 337t65 337t180 241t266.5 141.5t330.5 48.5zM932 182q122 0 223.5 33.5t178.5 99.5t120 172.5t43 243.5t-43 243.5t-120 172.5
t-178.5 99.5t-223.5 33.5t-223.5 -33.5t-178.5 -99.5t-120 -172.5t-43 -243.5t43 -243.5t120 -172.5t178.5 -99.5t223.5 -33.5z" />
    <glyph glyph-name="Odieresis" unicode="&#xd6;" horiz-adv-x="1863" 
d="M551 1595v205h258v-205h-258zM1055 1595v205h258v-205h-258zM932 1499q179 0 330.5 -48.5t266.5 -141.5t180 -241t65 -337t-65 -337t-180 -241t-266.5 -141.5t-330.5 -48.5t-330.5 48.5t-266.5 141.5t-180 241t-65 337t65 337t180 241t266.5 141.5t330.5 48.5zM932 182
q122 0 223.5 33.5t178.5 99.5t120 172.5t43 243.5t-43 243.5t-120 172.5t-178.5 99.5t-223.5 33.5t-223.5 -33.5t-178.5 -99.5t-120 -172.5t-43 -243.5t43 -243.5t120 -172.5t178.5 -99.5t223.5 -33.5z" />
    <glyph glyph-name="multiply" unicode="&#xd7;" horiz-adv-x="1335" 
d="M1165 1018l-350 -350l350 -351l-147 -147l-350 350l-351 -350l-147 147l350 351l-350 350l147 147l351 -350l350 350z" />
    <glyph glyph-name="Oslash" unicode="&#xd8;" horiz-adv-x="1863" 
d="M1582 1260q192 -202 192 -529q0 -189 -65 -337t-180 -241t-266.5 -141.5t-330.5 -48.5q-312 0 -529 140l-188 -185l-121 100l188 185q-192 202 -192 528q0 189 65 337t180 241t266.5 141.5t330.5 48.5q314 0 529 -139l188 184l120 -100zM367 731q0 -213 100 -347l816 802
q-141 94 -351 94q-122 0 -223.5 -33.5t-178.5 -99.5t-120 -172.5t-43 -243.5zM932 182q122 0 223.5 33.5t178.5 99.5t120 172.5t43 243.5q0 213 -100 347l-817 -801q141 -95 352 -95z" />
    <glyph glyph-name="Ugrave" unicode="&#xd9;" horiz-adv-x="1794" 
d="M461 1896h358l189 -317h-220zM1376 1462h254v-903q0 -153 -53.5 -268t-151.5 -186.5t-230.5 -106.5t-297.5 -35t-297.5 35t-230.5 106.5t-151.5 186.5t-53.5 268v903h254v-895q0 -100 34.5 -175t99 -121.5t151 -69.5t194.5 -23t194.5 23t151 69.5t99 121.5t34.5 175v895z
" />
    <glyph glyph-name="Uacute" unicode="&#xda;" horiz-adv-x="1794" 
d="M1333 1896l-327 -317h-220l189 317h358zM1376 1462h254v-903q0 -153 -53.5 -268t-151.5 -186.5t-230.5 -106.5t-297.5 -35t-297.5 35t-230.5 106.5t-151.5 186.5t-53.5 268v903h254v-895q0 -100 34.5 -175t99 -121.5t151 -69.5t194.5 -23t194.5 23t151 69.5t99 121.5
t34.5 175v895z" />
    <glyph glyph-name="Ucircumflex" unicode="&#xdb;" horiz-adv-x="1794" 
d="M1069 1579l-151 178h-9l-151 -178h-295l299 317h303l299 -317h-295zM1376 1462h254v-903q0 -153 -53.5 -268t-151.5 -186.5t-230.5 -106.5t-297.5 -35t-297.5 35t-230.5 106.5t-151.5 186.5t-53.5 268v903h254v-895q0 -100 34.5 -175t99 -121.5t151 -69.5t194.5 -23
t194.5 23t151 69.5t99 121.5t34.5 175v895z" />
    <glyph glyph-name="Udieresis" unicode="&#xdc;" horiz-adv-x="1794" 
d="M516 1595v205h258v-205h-258zM1020 1595v205h258v-205h-258zM1376 1462h254v-903q0 -153 -53.5 -268t-151.5 -186.5t-230.5 -106.5t-297.5 -35t-297.5 35t-230.5 106.5t-151.5 186.5t-53.5 268v903h254v-895q0 -100 34.5 -175t99 -121.5t151 -69.5t194.5 -23t194.5 23
t151 69.5t99 121.5t34.5 175v895z" />
    <glyph glyph-name="Yacute" unicode="&#xdd;" horiz-adv-x="1644" 
d="M1266 1896l-328 -317h-219l188 317h359zM1630 1462l-680 -911v-551h-254v547l-682 915h308l501 -690l512 690h295z" />
    <glyph glyph-name="Thorn" unicode="&#xde;" horiz-adv-x="1693" 
d="M1110 1204q261 0 382.5 -103.5t121.5 -332.5t-121.5 -333.5t-382.5 -104.5h-692v-330h-254v1462h254v-258h692zM1077 539q134 0 197 53.5t63 171.5t-63 171.5t-197 53.5h-659v-450h659z" />
    <glyph glyph-name="germandbls" unicode="&#xdf;" horiz-adv-x="1470" 
d="M1087 831v-8q160 -34 232 -135t72 -266q0 -226 -138.5 -340.5t-433.5 -114.5q-122 0 -223 29v213q97 -39 201 -39q162 0 249 57.5t87 194.5q0 148 -84 211t-256 63h-197v189h174q44 0 84 13t75 38.5t56 70t21 101.5q0 101 -76 153t-189 52q-344 0 -344 -344v-969h-256
v985q0 143 40 244.5t119.5 162t187 88t253.5 27.5q257 0 390 -103t133 -298q0 -210 -177 -275z" />
    <glyph glyph-name="agrave" unicode="&#xe0;" horiz-adv-x="1368" 
d="M252 1534h358l189 -317h-219zM1227 178q0 -130 30 -166v-12h-243q-31 31 -31 133v31q-153 -199 -485 -199q-88 0 -165 21.5t-137.5 63t-95 109t-34.5 154.5q0 84 26.5 148.5t73.5 103.5t102.5 61t122.5 29l434 45q75 8 109.5 34t34.5 79q0 60 -68 93.5t-209 33.5
q-135 0 -216 -42t-87 -124h-260q2 96 48 167.5t125.5 113.5t176.5 62t211 20q537 0 537 -324v-635zM977 487v68q-28 -19 -90 -27l-385 -49q-85 -10 -131.5 -47t-46.5 -115q0 -165 227 -165q55 0 110.5 9.5t113.5 34t102 61t72 96t28 134.5z" />
    <glyph glyph-name="aacute" unicode="&#xe1;" horiz-adv-x="1368" 
d="M1126 1534l-327 -317h-219l188 317h358zM1227 178q0 -130 30 -166v-12h-243q-31 31 -31 133v31q-153 -199 -485 -199q-88 0 -165 21.5t-137.5 63t-95 109t-34.5 154.5q0 84 26.5 148.5t73.5 103.5t102.5 61t122.5 29l434 45q75 8 109.5 34t34.5 79q0 60 -68 93.5
t-209 33.5q-135 0 -216 -42t-87 -124h-260q2 96 48 167.5t125.5 113.5t176.5 62t211 20q537 0 537 -324v-635zM977 487v68q-28 -19 -90 -27l-385 -49q-85 -10 -131.5 -47t-46.5 -115q0 -165 227 -165q55 0 110.5 9.5t113.5 34t102 61t72 96t28 134.5z" />
    <glyph glyph-name="acircumflex" unicode="&#xe2;" horiz-adv-x="1368" 
d="M846 1217l-152 178h-8l-151 -178h-295l299 317h303l299 -317h-295zM1227 178q0 -130 30 -166v-12h-243q-31 31 -31 133v31q-153 -199 -485 -199q-88 0 -165 21.5t-137.5 63t-95 109t-34.5 154.5q0 84 26.5 148.5t73.5 103.5t102.5 61t122.5 29l434 45q75 8 109.5 34
t34.5 79q0 60 -68 93.5t-209 33.5q-135 0 -216 -42t-87 -124h-260q2 96 48 167.5t125.5 113.5t176.5 62t211 20q537 0 537 -324v-635zM977 487v68q-28 -19 -90 -27l-385 -49q-85 -10 -131.5 -47t-46.5 -115q0 -165 227 -165q55 0 110.5 9.5t113.5 34t102 61t72 96t28 134.5z
" />
    <glyph glyph-name="atilde" unicode="&#xe3;" horiz-adv-x="1368" 
d="M891 1190q-47 0 -105 19.5t-103 43t-94 43t-79 19.5q-33 0 -46.5 -22.5t-12.5 -82.5h-201q0 86 20.5 148.5t56 95.5t75 47.5t85.5 14.5q47 0 105 -19.5t103 -43t94 -43t79 -19.5q33 0 47 22.5t13 79.5h200q0 -86 -20.5 -148t-56 -94t-75 -46.5t-85.5 -14.5zM1227 178
q0 -130 30 -166v-12h-243q-31 31 -31 133v31q-153 -199 -485 -199q-88 0 -165 21.5t-137.5 63t-95 109t-34.5 154.5q0 84 26.5 148.5t73.5 103.5t102.5 61t122.5 29l434 45q75 8 109.5 34t34.5 79q0 60 -68 93.5t-209 33.5q-135 0 -216 -42t-87 -124h-260q2 96 48 167.5
t125.5 113.5t176.5 62t211 20q537 0 537 -324v-635zM977 487v68q-28 -19 -90 -27l-385 -49q-85 -10 -131.5 -47t-46.5 -115q0 -165 227 -165q55 0 110.5 9.5t113.5 34t102 61t72 96t28 134.5z" />
    <glyph glyph-name="adieresis" unicode="&#xe4;" horiz-adv-x="1368" 
d="M309 1288v205h258v-205h-258zM813 1288v205h258v-205h-258zM1227 178q0 -130 30 -166v-12h-243q-31 31 -31 133v31q-153 -199 -485 -199q-88 0 -165 21.5t-137.5 63t-95 109t-34.5 154.5q0 84 26.5 148.5t73.5 103.5t102.5 61t122.5 29l434 45q75 8 109.5 34t34.5 79
q0 60 -68 93.5t-209 33.5q-135 0 -216 -42t-87 -124h-260q2 96 48 167.5t125.5 113.5t176.5 62t211 20q537 0 537 -324v-635zM977 487v68q-28 -19 -90 -27l-385 -49q-85 -10 -131.5 -47t-46.5 -115q0 -165 227 -165q55 0 110.5 9.5t113.5 34t102 61t72 96t28 134.5z" />
    <glyph glyph-name="aring" unicode="&#xe5;" horiz-adv-x="1368" 
d="M692 1206q-126 0 -211.5 67t-85.5 177t85.5 177t211.5 67t211.5 -67t85.5 -177t-85.5 -177t-211.5 -67zM692 1350q49 0 83 27.5t34 72.5t-34 72.5t-83 27.5t-83 -27.5t-34 -72.5t34 -72.5t83 -27.5zM1227 178q0 -130 30 -166v-12h-243q-31 31 -31 133v31
q-153 -199 -485 -199q-88 0 -165 21.5t-137.5 63t-95 109t-34.5 154.5q0 84 26.5 148.5t73.5 103.5t102.5 61t122.5 29l434 45q75 8 109.5 34t34.5 79q0 60 -68 93.5t-209 33.5q-135 0 -216 -42t-87 -124h-260q2 96 48 167.5t125.5 113.5t176.5 62t211 20q537 0 537 -324
v-635zM977 487v68q-28 -19 -90 -27l-385 -49q-85 -10 -131.5 -47t-46.5 -115q0 -165 227 -165q55 0 110.5 9.5t113.5 34t102 61t72 96t28 134.5z" />
    <glyph glyph-name="ae" unicode="&#xe6;" horiz-adv-x="2275" 
d="M2195 551q0 -28 -4 -64h-960q13 -163 107.5 -244t256.5 -81q62 0 113.5 11.5t85.5 29.5t59 43t37.5 49.5t16.5 50.5h276q-8 -58 -31 -110.5t-69.5 -103t-111 -87t-161.5 -58.5t-215 -22q-173 0 -307 64.5t-192 179.5q-161 -244 -557 -244q-139 0 -243.5 36.5t-167 116
t-62.5 195.5q0 84 26.5 148.5t73.5 103.5t102.5 61t122.5 29l434 45q75 8 109.5 34t34.5 79q0 60 -68 93.5t-209 33.5q-135 0 -216 -42t-87 -124h-260q2 96 48 167.5t125.5 113.5t176.5 62t211 20q178 0 296.5 -37t174.5 -123q59 76 173 118t251 42q284 0 447 -155t163 -431
zM1585 940q-138 0 -227.5 -66t-116.5 -196h688q-27 130 -116.5 196t-227.5 66zM977 487v68q-28 -19 -90 -27l-385 -49q-85 -10 -131.5 -47t-46.5 -115q0 -165 227 -165q55 0 110.5 9.5t113.5 34t102 61t72 96t28 134.5z" />
    <glyph glyph-name="ccedilla" unicode="&#xe7;" horiz-adv-x="1423" 
d="M1343 410q-27 -186 -160.5 -305.5t-385.5 -137.5l-37 -55q44 6 82 6q114 0 171.5 -48.5t57.5 -135.5q0 -199 -338 -199q-137 0 -239 27v137h8q127 -37 217 -37q117 0 117 72q0 71 -117 71q-30 0 -77.5 -5t-61.5 -11h-9v72l70 106q-263 20 -412 173.5t-149 408.5
q0 278 170 433t465 155q121 0 219.5 -22.5t168 -61.5t120 -95t78 -120.5t38.5 -139.5h-272q-43 234 -352 234q-176 0 -276.5 -98t-100.5 -285q0 -184 101 -281.5t276 -97.5q312 0 354 240h274z" />
    <glyph glyph-name="egrave" unicode="&#xe8;" 
d="M819 1217h-219l-328 317h359zM1341 551q0 -28 -4 -64h-1001q15 -162 115.5 -243.5t271.5 -81.5q154 0 235 55.5t95 128.5h276q-8 -58 -33 -110.5t-73 -103t-114.5 -87t-165.5 -58.5t-220 -22q-300 0 -471.5 155t-171.5 431q0 275 169.5 430.5t461.5 155.5t461 -155.5
t169 -430.5zM711 940q-146 0 -241 -66.5t-124 -195.5h729q-29 130 -124 196t-240 66z" />
    <glyph glyph-name="eacute" unicode="&#xe9;" 
d="M1147 1534l-328 -317h-219l188 317h359zM1341 551q0 -28 -4 -64h-1001q15 -162 115.5 -243.5t271.5 -81.5q154 0 235 55.5t95 128.5h276q-8 -58 -33 -110.5t-73 -103t-114.5 -87t-165.5 -58.5t-220 -22q-300 0 -471.5 155t-171.5 431q0 275 169.5 430.5t461.5 155.5
t461 -155.5t169 -430.5zM711 940q-146 0 -241 -66.5t-124 -195.5h729q-29 130 -124 196t-240 66z" />
    <glyph glyph-name="ecircumflex" unicode="&#xea;" 
d="M707 1395l-152 -178h-295l299 317h303l299 -317h-295l-151 178h-8zM1341 551q0 -28 -4 -64h-1001q15 -162 115.5 -243.5t271.5 -81.5q154 0 235 55.5t95 128.5h276q-8 -58 -33 -110.5t-73 -103t-114.5 -87t-165.5 -58.5t-220 -22q-300 0 -471.5 155t-171.5 431
q0 275 169.5 430.5t461.5 155.5t461 -155.5t169 -430.5zM711 940q-146 0 -241 -66.5t-124 -195.5h729q-29 130 -124 196t-240 66z" />
    <glyph glyph-name="edieresis" unicode="&#xeb;" 
d="M588 1493v-205h-258v205h258zM1092 1493v-205h-258v205h258zM1341 551q0 -28 -4 -64h-1001q15 -162 115.5 -243.5t271.5 -81.5q154 0 235 55.5t95 128.5h276q-8 -58 -33 -110.5t-73 -103t-114.5 -87t-165.5 -58.5t-220 -22q-300 0 -471.5 155t-171.5 431
q0 275 169.5 430.5t461.5 155.5t461 -155.5t169 -430.5zM711 940q-146 0 -241 -66.5t-124 -195.5h729q-29 130 -124 196t-240 66z" />
    <glyph glyph-name="igrave" unicode="&#xec;" horiz-adv-x="532" 
d="M-172 1534h358l189 -317h-219zM141 0v1102h250v-1102h-250z" />
    <glyph glyph-name="iacute" unicode="&#xed;" horiz-adv-x="532" 
d="M702 1534l-327 -317h-219l188 317h358zM141 0v1102h250v-1102h-250z" />
    <glyph glyph-name="icircumflex" unicode="&#xee;" horiz-adv-x="532" 
d="M422 1217l-152 178h-8l-151 -178h-295l299 317h303l299 -317h-295zM141 0v1102h250v-1102h-250z" />
    <glyph glyph-name="idieresis" unicode="&#xef;" horiz-adv-x="532" 
d="M-115 1288v205h258v-205h-258zM389 1288v205h258v-205h-258zM141 0v1102h250v-1102h-250z" />
    <glyph glyph-name="eth" unicode="&#xf0;" horiz-adv-x="1431" 
d="M893 1333q459 -247 459 -768q0 -120 -34.5 -220t-94.5 -169.5t-142.5 -117.5t-178 -70.5t-202.5 -22.5q-132 0 -241 28.5t-195.5 87t-135 159.5t-48.5 237q0 109 32.5 197t88.5 146.5t134.5 97.5t167 56t189.5 17q215 0 359 -98l6 2q-106 202 -365 313l-248 -151l-143 98
l197 121q-148 42 -322 65l115 172q243 -37 426 -102l225 139l143 -98zM707 166q78 0 142.5 17t115.5 53t79.5 98t28.5 145q0 82 -28.5 143.5t-79.5 97.5t-115.5 53.5t-142.5 17.5q-163 0 -265 -76.5t-102 -235.5q0 -83 28.5 -145t80 -98t116 -53t142.5 -17z" />
    <glyph glyph-name="ntilde" unicode="&#xf1;" horiz-adv-x="1441" 
d="M922 1190q-47 0 -105 19.5t-103 43t-94 43t-79 19.5q-33 0 -47 -22.5t-13 -82.5h-200q0 86 20.5 148.5t56 95.5t75 47.5t85.5 14.5q47 0 105 -19.5t103 -43t94 -43t79 -19.5q33 0 46.5 22.5t12.5 79.5h201q0 -86 -20.5 -148t-56 -94t-75 -46.5t-85.5 -14.5zM385 1102
v-141h8q154 167 434 167q103 0 187.5 -22.5t149 -68t100.5 -121.5t36 -177v-739h-249v651q0 144 -77.5 208.5t-230.5 64.5q-66 0 -126.5 -18.5t-112 -56.5t-82.5 -104.5t-31 -154.5v-590h-250v1102h244z" />
    <glyph glyph-name="ograve" unicode="&#xf2;" horiz-adv-x="1449" 
d="M287 1534h358l189 -317h-220zM725 1137q302 0 473.5 -155t171.5 -431t-171.5 -431t-473.5 -155t-473.5 155t-171.5 431t171.5 431t473.5 155zM725 170q183 0 285 97.5t102 283.5t-102 283.5t-285 97.5t-285 -97.5t-102 -283.5t102 -283.5t285 -97.5z" />
    <glyph glyph-name="oacute" unicode="&#xf3;" horiz-adv-x="1449" 
d="M1161 1534l-327 -317h-220l189 317h358zM725 1137q302 0 473.5 -155t171.5 -431t-171.5 -431t-473.5 -155t-473.5 155t-171.5 431t171.5 431t473.5 155zM725 170q183 0 285 97.5t102 283.5t-102 283.5t-285 97.5t-285 -97.5t-102 -283.5t102 -283.5t285 -97.5z" />
    <glyph glyph-name="ocircumflex" unicode="&#xf4;" horiz-adv-x="1449" 
d="M881 1217l-152 178h-8l-152 -178h-295l299 317h304l299 -317h-295zM725 1137q302 0 473.5 -155t171.5 -431t-171.5 -431t-473.5 -155t-473.5 155t-171.5 431t171.5 431t473.5 155zM725 170q183 0 285 97.5t102 283.5t-102 283.5t-285 97.5t-285 -97.5t-102 -283.5
t102 -283.5t285 -97.5z" />
    <glyph glyph-name="otilde" unicode="&#xf5;" horiz-adv-x="1449" 
d="M926 1190q-47 0 -105 19.5t-103 43t-94 43t-79 19.5q-33 0 -47 -22.5t-13 -82.5h-200q0 86 20.5 148.5t56 95.5t75 47.5t85.5 14.5q47 0 105 -19.5t103 -43t94 -43t79 -19.5q33 0 47 22.5t13 79.5h200q0 -86 -20.5 -148t-56 -94t-75 -46.5t-85.5 -14.5zM725 1137
q302 0 473.5 -155t171.5 -431t-171.5 -431t-473.5 -155t-473.5 155t-171.5 431t171.5 431t473.5 155zM725 170q183 0 285 97.5t102 283.5t-102 283.5t-285 97.5t-285 -97.5t-102 -283.5t102 -283.5t285 -97.5z" />
    <glyph glyph-name="odieresis" unicode="&#xf6;" horiz-adv-x="1449" 
d="M344 1288v205h258v-205h-258zM848 1288v205h258v-205h-258zM725 1137q302 0 473.5 -155t171.5 -431t-171.5 -431t-473.5 -155t-473.5 155t-171.5 431t171.5 431t473.5 155zM725 170q183 0 285 97.5t102 283.5t-102 283.5t-285 97.5t-285 -97.5t-102 -283.5t102 -283.5
t285 -97.5z" />
    <glyph glyph-name="divide" unicode="&#xf7;" 
d="M711 915q-67 0 -115.5 48.5t-48.5 115.5t48.5 115.5t115.5 48.5t115 -48t48 -116t-48 -116t-115 -48zM1251 770v-205h-1081v205h1081zM711 92q-67 0 -115.5 48t-48.5 116t48.5 116t115.5 48t115 -48t48 -116t-48 -116t-115 -48z" />
    <glyph glyph-name="oslash" unicode="&#xf8;" horiz-adv-x="1449" 
d="M1370 1059l-130 -120q130 -150 130 -388q0 -276 -171.5 -431t-473.5 -155q-255 0 -419 112l-124 -114l-102 78l131 121q-131 151 -131 389q0 276 171.5 431t473.5 155q257 0 420 -113l123 113zM338 551q0 -133 54 -222l581 536q-95 67 -248 67q-183 0 -285 -97.5
t-102 -283.5zM1112 551q0 131 -53 221l-581 -536q96 -66 247 -66q183 0 285 97.5t102 283.5z" />
    <glyph glyph-name="ugrave" unicode="&#xf9;" horiz-adv-x="1441" 
d="M283 1534h358l188 -317h-219zM1057 0v141h-8q-155 -168 -435 -168q-103 0 -187.5 22.5t-149 68t-100.5 121.5t-36 177v740h250v-651q0 -144 77 -208.5t230 -64.5q66 0 126.5 18.5t112.5 56.5t83 104.5t31 154.5v590h249v-1102h-243z" />
    <glyph glyph-name="uacute" unicode="&#xfa;" horiz-adv-x="1441" 
d="M1157 1534l-328 -317h-219l189 317h358zM1057 0v141h-8q-155 -168 -435 -168q-103 0 -187.5 22.5t-149 68t-100.5 121.5t-36 177v740h250v-651q0 -144 77 -208.5t230 -64.5q66 0 126.5 18.5t112.5 56.5t83 104.5t31 154.5v590h249v-1102h-243z" />
    <glyph glyph-name="ucircumflex" unicode="&#xfb;" horiz-adv-x="1441" 
d="M877 1217l-152 178h-8l-152 -178h-295l299 317h303l299 -317h-294zM1057 0v141h-8q-155 -168 -435 -168q-103 0 -187.5 22.5t-149 68t-100.5 121.5t-36 177v740h250v-651q0 -144 77 -208.5t230 -64.5q66 0 126.5 18.5t112.5 56.5t83 104.5t31 154.5v590h249v-1102h-243z
" />
    <glyph glyph-name="udieresis" unicode="&#xfc;" horiz-adv-x="1441" 
d="M340 1288v205h258v-205h-258zM844 1288v205h258v-205h-258zM1057 0v141h-8q-155 -168 -435 -168q-103 0 -187.5 22.5t-149 68t-100.5 121.5t-36 177v740h250v-651q0 -144 77 -208.5t230 -64.5q66 0 126.5 18.5t112.5 56.5t83 104.5t31 154.5v590h249v-1102h-243z" />
    <glyph glyph-name="yacute" unicode="&#xfd;" horiz-adv-x="1372" 
d="M1122 1534l-327 -317h-220l189 317h358zM1341 1102l-557 -1204q-80 -173 -188.5 -241.5t-284.5 -68.5q-118 0 -194 11v217q112 -15 176 -15q151 0 205 121l41 90l-508 1090h276l373 -846h8l377 846h276z" />
    <glyph glyph-name="thorn" unicode="&#xfe;" horiz-adv-x="1480" 
d="M399 147h-8v-532h-250v1868h250v-537h8q63 84 171 133t245 49q264 0 425 -154.5t161 -426.5t-161 -427t-425 -155q-137 0 -245 49t-171 133zM764 924q-175 0 -277 -103t-102 -274t102 -274t277 -103q181 0 280 95.5t99 281.5t-99 281.5t-280 95.5z" />
    <glyph glyph-name="ydieresis" unicode="&#xff;" horiz-adv-x="1372" 
d="M305 1288v205h258v-205h-258zM809 1288v205h258v-205h-258zM1341 1102l-557 -1204q-80 -173 -188.5 -241.5t-284.5 -68.5q-118 0 -194 11v217q112 -15 176 -15q151 0 205 121l41 90l-508 1090h276l373 -846h8l377 846h276z" />
    <glyph glyph-name="Amacron" unicode="&#x100;" horiz-adv-x="1761" 
d="M1266 1788v-184h-770v184h770zM1456 0l-156 330h-847l-156 -330h-272l708 1462h295l709 -1462h-281zM554 545h645l-318 674h-9z" />
    <glyph glyph-name="amacron" unicode="&#x101;" horiz-adv-x="1368" 
d="M1075 1276h-770v184h770v-184zM1227 178q0 -130 30 -166v-12h-243q-31 31 -31 133v31q-153 -199 -485 -199q-88 0 -165 21.5t-137.5 63t-95 109t-34.5 154.5q0 84 26.5 148.5t73.5 103.5t102.5 61t122.5 29l434 45q75 8 109.5 34t34.5 79q0 60 -68 93.5t-209 33.5
q-135 0 -216 -42t-87 -124h-260q2 96 48 167.5t125.5 113.5t176.5 62t211 20q537 0 537 -324v-635zM977 487v68q-28 -19 -90 -27l-385 -49q-85 -10 -131.5 -47t-46.5 -115q0 -165 227 -165q55 0 110.5 9.5t113.5 34t102 61t72 96t28 134.5z" />
    <glyph glyph-name="Abreve" unicode="&#x102;" horiz-adv-x="1761" 
d="M881 1569q-84 0 -156 19.5t-129.5 57.5t-91.5 102t-35 146h219q15 -133 193 -133q177 0 192 133h219q-1 -82 -35 -146t-91 -102t-129 -57.5t-156 -19.5zM1456 0l-156 330h-847l-156 -330h-272l708 1462h295l709 -1462h-281zM554 545h645l-318 674h-9z" />
    <glyph glyph-name="abreve" unicode="&#x103;" horiz-adv-x="1368" 
d="M1102 1532q-1 -82 -35 -146t-91.5 -102.5t-130 -58t-155.5 -19.5q-175 0 -291.5 82.5t-119.5 243.5h219q15 -133 192 -133q178 0 193 133h219zM1227 178q0 -130 30 -166v-12h-243q-31 31 -31 133v31q-153 -199 -485 -199q-88 0 -165 21.5t-137.5 63t-95 109t-34.5 154.5
q0 84 26.5 148.5t73.5 103.5t102.5 61t122.5 29l434 45q75 8 109.5 34t34.5 79q0 60 -68 93.5t-209 33.5q-135 0 -216 -42t-87 -124h-260q2 96 48 167.5t125.5 113.5t176.5 62t211 20q537 0 537 -324v-635zM977 487v68q-28 -19 -90 -27l-385 -49q-85 -10 -131.5 -47
t-46.5 -115q0 -165 227 -165q55 0 110.5 9.5t113.5 34t102 61t72 96t28 134.5z" />
    <glyph glyph-name="Aogonek" unicode="&#x104;" horiz-adv-x="1761" 
d="M1507 -238q0 -37 33 -55t78 -18q61 0 119 16v-154q-75 -16 -162 -16q-328 0 -328 199q0 25 14 58.5t42 72t79 75.5t115 60h-41l-156 330h-847l-156 -330h-272l708 1462h295l709 -1462q-230 -92 -230 -238zM554 545h645l-318 674h-9z" />
    <glyph glyph-name="aogonek" unicode="&#x105;" horiz-adv-x="1368" 
d="M1257 0q-71 -29 -119 -60.5t-70.5 -63.5t-31 -58.5t-8.5 -55.5q0 -37 33 -55t78 -18q60 0 118 16v-154q-75 -16 -161 -16q-328 0 -328 199q0 25 14 58.5t42 72t79 75.5t115 60h-4q-31 31 -31 133v31q-153 -199 -485 -199q-88 0 -165 21.5t-137.5 63t-95 109t-34.5 154.5
q0 84 26.5 148.5t73.5 103.5t102.5 61t122.5 29l434 45q75 8 109.5 34t34.5 79q0 60 -68 93.5t-209 33.5q-135 0 -216 -42t-87 -124h-260q2 96 48 167.5t125.5 113.5t176.5 62t211 20q537 0 537 -324v-635q0 -130 30 -166v-12zM977 487v68q-28 -19 -90 -27l-385 -49
q-85 -10 -131.5 -47t-46.5 -115q0 -165 227 -165q55 0 110.5 9.5t113.5 34t102 61t72 96t28 134.5z" />
    <glyph glyph-name="Cacute" unicode="&#x106;" horiz-adv-x="1777" 
d="M1341 1896l-327 -317h-219l188 317h358zM1393 932q-13 154 -139 251t-349 97q-112 0 -208 -33.5t-170.5 -99.5t-117 -172.5t-42.5 -243.5t42.5 -243.5t117 -172.5t170.5 -99.5t208 -33.5q227 0 354.5 103t135.5 276h293q-5 -182 -103 -317.5t-273.5 -208t-406.5 -72.5
q-135 0 -255.5 30t-223 92.5t-177.5 152t-117 216t-42 277.5t42 277.5t117 216t177.5 152t223 92.5t255.5 30q344 0 553.5 -156t224.5 -411h-290z" />
    <glyph glyph-name="cacute" unicode="&#x107;" horiz-adv-x="1423" 
d="M1151 1534l-328 -317h-219l189 317h358zM715 170q312 0 354 240h274q-14 -96 -56 -174.5t-116 -140.5t-190 -96t-266 -34q-295 0 -465 155t-170 429q0 278 170 433t465 155q121 0 219.5 -22.5t168 -61.5t120 -95t78 -120.5t38.5 -139.5h-272q-43 234 -352 234
q-176 0 -276.5 -98t-100.5 -285q0 -184 101 -281.5t276 -97.5z" />
    <glyph glyph-name="Ccircumflex" unicode="&#x108;" horiz-adv-x="1777" 
d="M1077 1579l-151 178h-8l-152 -178h-295l299 317h303l299 -317h-295zM1393 932q-13 154 -139 251t-349 97q-112 0 -208 -33.5t-170.5 -99.5t-117 -172.5t-42.5 -243.5t42.5 -243.5t117 -172.5t170.5 -99.5t208 -33.5q227 0 354.5 103t135.5 276h293q-5 -182 -103 -317.5
t-273.5 -208t-406.5 -72.5q-135 0 -255.5 30t-223 92.5t-177.5 152t-117 216t-42 277.5t42 277.5t117 216t177.5 152t223 92.5t255.5 30q344 0 553.5 -156t224.5 -411h-290z" />
    <glyph glyph-name="ccircumflex" unicode="&#x109;" horiz-adv-x="1423" 
d="M870 1217l-151 178h-8l-152 -178h-295l299 317h303l299 -317h-295zM715 170q312 0 354 240h274q-14 -96 -56 -174.5t-116 -140.5t-190 -96t-266 -34q-295 0 -465 155t-170 429q0 278 170 433t465 155q121 0 219.5 -22.5t168 -61.5t120 -95t78 -120.5t38.5 -139.5h-272
q-43 234 -352 234q-176 0 -276.5 -98t-100.5 -285q0 -184 101 -281.5t276 -97.5z" />
    <glyph glyph-name="Cdotaccent" unicode="&#x10a;" horiz-adv-x="1777" 
d="M776 1595v205h258v-205h-258zM1393 932q-13 154 -139 251t-349 97q-112 0 -208 -33.5t-170.5 -99.5t-117 -172.5t-42.5 -243.5t42.5 -243.5t117 -172.5t170.5 -99.5t208 -33.5q227 0 354.5 103t135.5 276h293q-5 -182 -103 -317.5t-273.5 -208t-406.5 -72.5
q-135 0 -255.5 30t-223 92.5t-177.5 152t-117 216t-42 277.5t42 277.5t117 216t177.5 152t223 92.5t255.5 30q344 0 553.5 -156t224.5 -411h-290z" />
    <glyph glyph-name="cdotaccent" unicode="&#x10b;" horiz-adv-x="1423" 
d="M586 1286v205h258v-205h-258zM715 170q312 0 354 240h274q-14 -96 -56 -174.5t-116 -140.5t-190 -96t-266 -34q-295 0 -465 155t-170 429q0 278 170 433t465 155q121 0 219.5 -22.5t168 -61.5t120 -95t78 -120.5t38.5 -139.5h-272q-43 234 -352 234q-176 0 -276.5 -98
t-100.5 -285q0 -184 101 -281.5t276 -97.5z" />
    <glyph glyph-name="Ccaron" unicode="&#x10c;" horiz-adv-x="1777" 
d="M1061 1896h295l-299 -317h-303l-299 317h295l151 -178h8zM1393 932q-13 154 -139 251t-349 97q-112 0 -208 -33.5t-170.5 -99.5t-117 -172.5t-42.5 -243.5t42.5 -243.5t117 -172.5t170.5 -99.5t208 -33.5q227 0 354.5 103t135.5 276h293q-5 -182 -103 -317.5t-273.5 -208
t-406.5 -72.5q-135 0 -255.5 30t-223 92.5t-177.5 152t-117 216t-42 277.5t42 277.5t117 216t177.5 152t223 92.5t255.5 30q344 0 553.5 -156t224.5 -411h-290z" />
    <glyph glyph-name="ccaron" unicode="&#x10d;" horiz-adv-x="1423" 
d="M870 1534h295l-299 -317h-303l-299 317h295l152 -178h8zM715 170q312 0 354 240h274q-14 -96 -56 -174.5t-116 -140.5t-190 -96t-266 -34q-295 0 -465 155t-170 429q0 278 170 433t465 155q121 0 219.5 -22.5t168 -61.5t120 -95t78 -120.5t38.5 -139.5h-272
q-43 234 -352 234q-176 0 -276.5 -98t-100.5 -285q0 -184 101 -281.5t276 -97.5z" />
    <glyph glyph-name="Dcaron" unicode="&#x10e;" horiz-adv-x="1759" 
d="M971 1896h295l-299 -317h-303l-299 317h294l152 -178h8zM905 1462q764 0 764 -731t-764 -731h-741v1462h741zM854 1247h-436v-1032h436q539 0 539 516t-539 516z" />
    <glyph glyph-name="dcaron" unicode="&#x10f;" horiz-adv-x="1683" 
d="M1081 946h9v537h249v-1483h-243v158h-9q-62 -91 -172 -142t-249 -51q-264 0 -425 155t-161 427t161 426.5t425 154.5q137 0 244.5 -49t170.5 -133zM1683 1483v-185q0 -74 -9.5 -122.5t-35 -87.5t-73.5 -57t-123 -19v100q70 1 91 32t21 105h-112v234h241zM717 170
q175 0 277 103t102 274t-102 274t-277 103q-181 0 -280 -95.5t-99 -281.5t99 -281.5t280 -95.5z" />
    <glyph glyph-name="Dcroat" unicode="&#x110;" horiz-adv-x="1814" 
d="M934 1462q764 0 764 -731t-764 -731h-741v633h-152v196h152v633h741zM883 215q538 0 538 516t-538 516h-437v-418h400v-196h-400v-418h437z" />
    <glyph glyph-name="dcroat" unicode="&#x111;" horiz-adv-x="1490" 
d="M1339 1368h152v-160h-152v-1208h-243v158h-9q-62 -91 -172 -142t-249 -51q-264 0 -425 155t-161 427t161 426.5t425 154.5q137 0 244.5 -49t170.5 -133h9v262h-326v160h326v115h249v-115zM717 170q175 0 277 103t102 274t-102 274t-277 103q-181 0 -280 -95.5t-99 -281.5
t99 -281.5t280 -95.5z" />
    <glyph glyph-name="Emacron" unicode="&#x112;" horiz-adv-x="1589" 
d="M1190 1604h-770v184h770v-184zM418 1243v-373h997v-213h-997v-438h1055v-219h-1309v1462h1282v-219h-1028z" />
    <glyph glyph-name="emacron" unicode="&#x113;" 
d="M1096 1460v-184h-770v184h770zM1341 551q0 -28 -4 -64h-1001q15 -162 115.5 -243.5t271.5 -81.5q154 0 235 55.5t95 128.5h276q-8 -58 -33 -110.5t-73 -103t-114.5 -87t-165.5 -58.5t-220 -22q-300 0 -471.5 155t-171.5 431q0 275 169.5 430.5t461.5 155.5t461 -155.5
t169 -430.5zM711 940q-146 0 -241 -66.5t-124 -195.5h729q-29 130 -124 196t-240 66z" />
    <glyph glyph-name="Ebreve" unicode="&#x114;" horiz-adv-x="1589" 
d="M1217 1894q-1 -82 -35 -146t-91.5 -102t-129.5 -57.5t-156 -19.5t-156 19.5t-129.5 57.5t-91.5 102t-35 146h219q15 -133 193 -133q177 0 192 133h220zM418 1243v-373h997v-213h-997v-438h1055v-219h-1309v1462h1282v-219h-1028z" />
    <glyph glyph-name="ebreve" unicode="&#x115;" 
d="M711 1206q-83 0 -155.5 19.5t-130 58t-91.5 102.5t-35 146h219q15 -133 193 -133q177 0 192 133h219q-3 -161 -119.5 -243.5t-291.5 -82.5zM1341 551q0 -28 -4 -64h-1001q15 -162 115.5 -243.5t271.5 -81.5q154 0 235 55.5t95 128.5h276q-8 -58 -33 -110.5t-73 -103
t-114.5 -87t-165.5 -58.5t-220 -22q-300 0 -471.5 155t-171.5 431q0 275 169.5 430.5t461.5 155.5t461 -155.5t169 -430.5zM711 940q-146 0 -241 -66.5t-124 -195.5h729q-29 130 -124 196t-240 66z" />
    <glyph glyph-name="Edotaccent" unicode="&#x116;" horiz-adv-x="1589" 
d="M676 1595v205h258v-205h-258zM418 1243v-373h997v-213h-997v-438h1055v-219h-1309v1462h1282v-219h-1028z" />
    <glyph glyph-name="edotaccent" unicode="&#x117;" 
d="M840 1491v-205h-258v205h258zM1341 551q0 -28 -4 -64h-1001q15 -162 115.5 -243.5t271.5 -81.5q154 0 235 55.5t95 128.5h276q-8 -58 -33 -110.5t-73 -103t-114.5 -87t-165.5 -58.5t-220 -22q-300 0 -471.5 155t-171.5 431q0 275 169.5 430.5t461.5 155.5t461 -155.5
t169 -430.5zM711 940q-146 0 -241 -66.5t-124 -195.5h729q-29 130 -124 196t-240 66z" />
    <glyph glyph-name="Eogonek" unicode="&#x118;" horiz-adv-x="1589" 
d="M1473 0q-230 -92 -230 -238q0 -37 33 -55t78 -18q61 0 119 16v-154q-75 -16 -162 -16q-328 0 -328 199q0 25 14 58.5t42 72t79 75.5t115 60h-1069v1462h1282v-219h-1028v-373h997v-213h-997v-438h1055v-219z" />
    <glyph glyph-name="eogonek" unicode="&#x119;" 
d="M1341 551q0 -28 -4 -64h-1001q15 -162 115.5 -243.5t271.5 -81.5q154 0 235 55.5t95 128.5h276q-17 -115 -102 -210.5t-244 -139.5q-70 -27 -117 -58t-69 -62.5t-30.5 -58t-8.5 -55.5q0 -36 33.5 -54.5t76.5 -18.5q61 0 119 16v-154q-75 -16 -162 -16q-154 0 -228.5 49
t-74.5 150q0 52 38 118.5t120 112.5q-282 12 -441 166.5t-159 419.5q0 275 169.5 430.5t461.5 155.5t461 -155.5t169 -430.5zM711 940q-146 0 -241 -66.5t-124 -195.5h729q-29 130 -124 196t-240 66z" />
    <glyph glyph-name="Ecaron" unicode="&#x11a;" horiz-adv-x="1589" 
d="M961 1896h294l-299 -317h-303l-299 317h295l152 -178h8zM418 1243v-373h997v-213h-997v-438h1055v-219h-1309v1462h1282v-219h-1028z" />
    <glyph glyph-name="ecaron" unicode="&#x11b;" 
d="M862 1217h-303l-299 317h295l152 -178h8l151 178h295zM1341 551q0 -28 -4 -64h-1001q15 -162 115.5 -243.5t271.5 -81.5q154 0 235 55.5t95 128.5h276q-8 -58 -33 -110.5t-73 -103t-114.5 -87t-165.5 -58.5t-220 -22q-300 0 -471.5 155t-171.5 431q0 275 169.5 430.5
t461.5 155.5t461 -155.5t169 -430.5zM711 940q-146 0 -241 -66.5t-124 -195.5h729q-29 130 -124 196t-240 66z" />
    <glyph glyph-name="Gcircumflex" unicode="&#x11c;" horiz-adv-x="1875" 
d="M1102 1579l-152 178h-8l-151 -178h-295l299 317h303l299 -317h-295zM1722 778v-778h-213v221q-182 -258 -563 -258q-147 0 -275.5 30t-235.5 92t-183.5 152t-119 216t-42.5 278t41.5 278t116.5 216t179.5 152t231 92t271.5 30q148 0 270.5 -26.5t210.5 -73t152 -112
t99.5 -142t47.5 -164.5h-289q-11 46 -31 87t-59 81t-91.5 68t-132 45.5t-177.5 17.5q-121 0 -222 -33.5t-178 -99.5t-120 -172.5t-43 -243.5t43 -243t121.5 -172.5t183 -100t231.5 -33.5q218 0 336.5 102.5t144.5 286.5h-460v207h755z" />
    <glyph glyph-name="gcircumflex" unicode="&#x11d;" horiz-adv-x="1462" 
d="M856 1217l-151 178h-9l-151 -178h-295l299 317h303l299 -317h-295zM1077 1102h244v-1057q0 -90 -14.5 -156t-54 -125.5t-106 -96.5t-173 -58t-252.5 -21q-140 0 -247.5 22.5t-172 58t-105.5 86.5t-56.5 101t-16.5 109h270q2 -24 10.5 -46.5t31.5 -47.5t58 -43.5
t93.5 -30.5t134.5 -12q106 0 176.5 17.5t107.5 54t51.5 80.5t14.5 108v191h-8q-66 -77 -173 -125t-239 -48q-257 0 -414 142t-157 391t157 390.5t414 141.5q136 0 243.5 -48.5t174.5 -131.5h8v154zM705 268q171 0 270.5 89.5t99.5 238.5t-99.5 238.5t-270.5 89.5
q-174 0 -270.5 -83.5t-96.5 -244.5t96.5 -244.5t270.5 -83.5z" />
    <glyph glyph-name="Gbreve" unicode="&#x11e;" horiz-adv-x="1875" 
d="M1341 1894q-1 -82 -35 -146t-91 -102t-129 -57.5t-156 -19.5t-156 19.5t-129.5 57.5t-91.5 102t-35 146h219q15 -133 193 -133q177 0 192 133h219zM1722 778v-778h-213v221q-182 -258 -563 -258q-147 0 -275.5 30t-235.5 92t-183.5 152t-119 216t-42.5 278t41.5 278
t116.5 216t179.5 152t231 92t271.5 30q148 0 270.5 -26.5t210.5 -73t152 -112t99.5 -142t47.5 -164.5h-289q-11 46 -31 87t-59 81t-91.5 68t-132 45.5t-177.5 17.5q-121 0 -222 -33.5t-178 -99.5t-120 -172.5t-43 -243.5t43 -243t121.5 -172.5t183 -100t231.5 -33.5
q218 0 336.5 102.5t144.5 286.5h-460v207h755z" />
    <glyph glyph-name="gbreve" unicode="&#x11f;" horiz-adv-x="1462" 
d="M1112 1532q-1 -82 -35 -146t-91.5 -102.5t-130 -58t-155.5 -19.5q-175 0 -291.5 82.5t-119.5 243.5h219q15 -133 192 -133q178 0 193 133h219zM1077 1102h244v-1057q0 -90 -14.5 -156t-54 -125.5t-106 -96.5t-173 -58t-252.5 -21q-140 0 -247.5 22.5t-172 58t-105.5 86.5
t-56.5 101t-16.5 109h270q2 -24 10.5 -46.5t31.5 -47.5t58 -43.5t93.5 -30.5t134.5 -12q106 0 176.5 17.5t107.5 54t51.5 80.5t14.5 108v191h-8q-66 -77 -173 -125t-239 -48q-257 0 -414 142t-157 391t157 390.5t414 141.5q136 0 243.5 -48.5t174.5 -131.5h8v154zM705 268
q171 0 270.5 89.5t99.5 238.5t-99.5 238.5t-270.5 89.5q-174 0 -270.5 -83.5t-96.5 -244.5t96.5 -244.5t270.5 -83.5z" />
    <glyph glyph-name="Gdotaccent" unicode="&#x120;" horiz-adv-x="1875" 
d="M801 1595v205h258v-205h-258zM1722 778v-778h-213v221q-182 -258 -563 -258q-147 0 -275.5 30t-235.5 92t-183.5 152t-119 216t-42.5 278t41.5 278t116.5 216t179.5 152t231 92t271.5 30q148 0 270.5 -26.5t210.5 -73t152 -112t99.5 -142t47.5 -164.5h-289q-11 46 -31 87
t-59 81t-91.5 68t-132 45.5t-177.5 17.5q-121 0 -222 -33.5t-178 -99.5t-120 -172.5t-43 -243.5t43 -243t121.5 -172.5t183 -100t231.5 -33.5q218 0 336.5 102.5t144.5 286.5h-460v207h755z" />
    <glyph glyph-name="gdotaccent" unicode="&#x121;" horiz-adv-x="1462" 
d="M571 1286v205h258v-205h-258zM1077 1102h244v-1057q0 -90 -14.5 -156t-54 -125.5t-106 -96.5t-173 -58t-252.5 -21q-140 0 -247.5 22.5t-172 58t-105.5 86.5t-56.5 101t-16.5 109h270q2 -24 10.5 -46.5t31.5 -47.5t58 -43.5t93.5 -30.5t134.5 -12q106 0 176.5 17.5
t107.5 54t51.5 80.5t14.5 108v191h-8q-66 -77 -173 -125t-239 -48q-257 0 -414 142t-157 391t157 390.5t414 141.5q136 0 243.5 -48.5t174.5 -131.5h8v154zM705 268q171 0 270.5 89.5t99.5 238.5t-99.5 238.5t-270.5 89.5q-174 0 -270.5 -83.5t-96.5 -244.5t96.5 -244.5
t270.5 -83.5z" />
    <glyph glyph-name="Gcommaaccent" unicode="&#x122;" horiz-adv-x="1875" 
d="M1722 778v-778h-213v221q-182 -258 -563 -258q-147 0 -275.5 30t-235.5 92t-183.5 152t-119 216t-42.5 278t41.5 278t116.5 216t179.5 152t231 92t271.5 30q148 0 270.5 -26.5t210.5 -73t152 -112t99.5 -142t47.5 -164.5h-289q-11 46 -31 87t-59 81t-91.5 68t-132 45.5
t-177.5 17.5q-121 0 -222 -33.5t-178 -99.5t-120 -172.5t-43 -243.5t43 -243t121.5 -172.5t183 -100t231.5 -33.5q218 0 336.5 102.5t144.5 286.5h-460v207h755zM1077 -131v-156q0 -73 -9.5 -119.5t-37 -82.5t-78 -51.5t-131.5 -16.5v84q69 1 94 34t25 103h-121v205h258z
" />
    <glyph glyph-name="gcommaaccent" unicode="&#x123;" horiz-adv-x="1462" 
d="M571 1288v156q0 73 9.5 119.5t37 82.5t78 51.5t131.5 16.5v-84q-69 -1 -93.5 -33.5t-24.5 -103.5h120v-205h-258zM1077 1102h244v-1057q0 -90 -14.5 -156t-54 -125.5t-106 -96.5t-173 -58t-252.5 -21q-140 0 -247.5 22.5t-172 58t-105.5 86.5t-56.5 101t-16.5 109h270
q2 -24 10.5 -46.5t31.5 -47.5t58 -43.5t93.5 -30.5t134.5 -12q106 0 176.5 17.5t107.5 54t51.5 80.5t14.5 108v191h-8q-66 -77 -173 -125t-239 -48q-257 0 -414 142t-157 391t157 390.5t414 141.5q136 0 243.5 -48.5t174.5 -131.5h8v154zM705 268q171 0 270.5 89.5
t99.5 238.5t-99.5 238.5t-270.5 89.5q-174 0 -270.5 -83.5t-96.5 -244.5t96.5 -244.5t270.5 -83.5z" />
    <glyph glyph-name="Hcircumflex" unicode="&#x124;" horiz-adv-x="1800" 
d="M1073 1579l-151 178h-9l-151 -178h-295l299 317h303l299 -317h-295zM1382 1462h254v-1462h-254v641h-964v-641h-254v1462h254v-600h964v600z" />
    <glyph glyph-name="hcircumflex" unicode="&#x125;" horiz-adv-x="1441" 
d="M438 1579l-151 178h-8l-152 -178h-295l299 317h303l299 -317h-295zM827 1128q103 0 187.5 -22.5t149 -68t100.5 -121.5t36 -177v-739h-249v651q0 144 -77.5 208.5t-230.5 64.5q-66 0 -126.5 -18.5t-112 -56.5t-82.5 -104.5t-31 -154.5v-590h-250v1483h250v-522h8
q145 167 428 167z" />
    <glyph glyph-name="Hbar" unicode="&#x126;" horiz-adv-x="1787" 
d="M1782 1260v-197h-152v-1063h-254v641h-964v-641h-254v1063h-152v197h152v202h254v-202h964v202h254v-202h152zM1376 862v201h-964v-201h964z" />
    <glyph glyph-name="hbar" unicode="&#x127;" horiz-adv-x="1454" 
d="M840 1128q103 0 187.5 -22.5t149 -68t100.5 -121.5t36 -177v-739h-250v651q0 144 -77 208.5t-230 64.5q-66 0 -126.5 -18.5t-112.5 -56.5t-83 -104.5t-31 -154.5v-590h-249v1208h-152v160h152v115h249v-115h326v-160h-326v-247h9q145 167 428 167z" />
    <glyph glyph-name="Itilde" unicode="&#x128;" horiz-adv-x="581" 
d="M492 1554q-47 0 -105 19.5t-103 43t-94 43t-79 19.5q-34 0 -47.5 -22t-12.5 -82h-201q0 86 20.5 148t56.5 95t75.5 47.5t85.5 14.5q47 0 105 -19.5t103 -43t94 -43t79 -19.5q33 0 46.5 23t12.5 80h201q0 -86 -20.5 -148t-56 -94.5t-75 -47t-85.5 -14.5zM418 0h-254v1462
h254v-1462z" />
    <glyph glyph-name="itilde" unicode="&#x129;" horiz-adv-x="532" 
d="M467 1190q-47 0 -105 19.5t-103 43t-94 43t-79 19.5q-33 0 -46.5 -22.5t-12.5 -82.5h-201q0 86 20.5 148.5t56 95.5t75 47.5t85.5 14.5q47 0 105 -19.5t103 -43t94 -43t79 -19.5q33 0 47 22.5t13 79.5h201q0 -86 -20.5 -148t-56.5 -94t-75.5 -46.5t-85.5 -14.5zM141 0
v1102h250v-1102h-250z" />
    <glyph glyph-name="Imacron" unicode="&#x12a;" horiz-adv-x="581" 
d="M676 1604h-770v184h770v-184zM418 0h-254v1462h254v-1462z" />
    <glyph glyph-name="imacron" unicode="&#x12b;" horiz-adv-x="532" 
d="M651 1276h-770v184h770v-184zM141 0v1102h250v-1102h-250z" />
    <glyph glyph-name="Ibreve" unicode="&#x12c;" horiz-adv-x="581" 
d="M702 1894q-1 -82 -35 -146t-91 -102t-129 -57.5t-156 -19.5t-156 19.5t-129.5 57.5t-91.5 102t-35 146h219q15 -133 193 -133q177 0 192 133h219zM418 0h-254v1462h254v-1462z" />
    <glyph glyph-name="ibreve" unicode="&#x12d;" horiz-adv-x="532" 
d="M678 1532q-1 -82 -35 -146t-91.5 -102.5t-130 -58t-155.5 -19.5q-175 0 -291.5 82.5t-119.5 243.5h219q15 -133 192 -133q178 0 193 133h219zM141 0v1102h250v-1102h-250z" />
    <glyph glyph-name="Iogonek" unicode="&#x12e;" horiz-adv-x="581" 
d="M418 0q-230 -92 -230 -238q0 -37 33 -55t78 -18q61 0 119 16v-154q-75 -16 -162 -16q-328 0 -328 199q0 25 14 58.5t42 72t79 75.5t115 60h-14v1462h254v-1462z" />
    <glyph glyph-name="iogonek" unicode="&#x12f;" horiz-adv-x="532" 
d="M137 1491h258v-205h-258v205zM141 0v1102h250v-1102q-71 -29 -119 -60.5t-70.5 -63.5t-31 -58.5t-8.5 -55.5q0 -37 32.5 -55t77.5 -18q61 0 119 16v-154q-75 -16 -162 -16q-327 0 -327 199q0 25 14 58.5t42 72t79 75.5t115 60h-11z" />
    <glyph glyph-name="Idotaccent" unicode="&#x130;" horiz-adv-x="581" 
d="M162 1595v205h258v-205h-258zM418 0h-254v1462h254v-1462z" />
    <glyph glyph-name="dotlessi" unicode="&#x131;" horiz-adv-x="532" 
d="M141 0v1102h250v-1102h-250z" />
    <glyph glyph-name="IJ" unicode="&#x132;" horiz-adv-x="2174" 
d="M418 0h-254v1462h254v-1462zM2011 1462v-903q0 -153 -50.5 -268.5t-143 -186.5t-216 -106t-276.5 -35t-276 35t-215 106.5t-141.5 186.5t-49.5 268v137h254v-137q0 -190 114.5 -283.5t313.5 -93.5q200 0 316 93.5t116 283.5v903h254z" />
    <glyph glyph-name="ij" unicode="&#x133;" horiz-adv-x="1064" 
d="M137 1286v205h258v-205h-258zM670 1286v205h258v-205h-258zM141 0v1102h250v-1102h-250zM528 -199q77 0 111.5 25.5t34.5 95.5v1180h250v-1235q0 -154 -77.5 -216.5t-266.5 -62.5q-96 0 -172 13v211q57 -11 120 -11z" />
    <glyph glyph-name="Jcircumflex" unicode="&#x134;" horiz-adv-x="1593" 
d="M1475 1579l-152 178h-8l-152 -178h-295l299 317h303l299 -317h-294zM1430 1462v-903q0 -123 -33 -221.5t-93 -168t-146 -116t-189.5 -68.5t-225.5 -22q-153 0 -276 35t-215 106.5t-141.5 186.5t-49.5 268v137h254v-137q0 -190 114.5 -283.5t313.5 -93.5q201 0 317 93.5
t116 283.5v903h254z" />
    <glyph glyph-name="jcircumflex" unicode="&#x135;" horiz-adv-x="532" 
d="M422 1217l-152 178h-8l-151 -178h-295l299 317h303l299 -317h-295zM-4 -199q77 0 111 25.5t34 95.5v1180h250v-1235q0 -154 -77.5 -216.5t-266.5 -62.5q-96 0 -172 13v211q57 -11 121 -11z" />
    <glyph glyph-name="Kcommaaccent" unicode="&#x136;" horiz-adv-x="1710" 
d="M1004 958l677 -958h-315l-557 793l-391 -338v-455h-254v1462h254v-723l821 723h346zM1022 -131v-156q0 -73 -9.5 -119.5t-37 -82.5t-78 -51.5t-131.5 -16.5v84q69 1 94 34t25 103h-121v205h258z" />
    <glyph glyph-name="kcommaaccent" unicode="&#x137;" horiz-adv-x="1306" 
d="M758 686l524 -686h-305l-402 530l-184 -159v-371h-250v1483h250v-838l520 457h326zM813 -131v-156q0 -73 -9.5 -119.5t-37 -82.5t-78 -51.5t-131.5 -16.5v84q69 1 94 34t25 103h-121v205h258z" />
    <glyph glyph-name="kgreenlandic" unicode="&#x138;" horiz-adv-x="1306" 
d="M758 686l524 -686h-305l-402 530l-184 -159v-371h-250v1102h250v-457l520 457h326z" />
    <glyph glyph-name="Lacute" unicode="&#x139;" horiz-adv-x="1554" 
d="M727 1896l-328 -317h-219l189 317h358zM1475 0h-1311v1462h254v-1241h1057v-221z" />
    <glyph glyph-name="lacute" unicode="&#x13a;" horiz-adv-x="532" 
d="M702 1896l-327 -317h-219l188 317h358zM141 0v1483h250v-1483h-250z" />
    <glyph glyph-name="Lcommaaccent" unicode="&#x13b;" horiz-adv-x="1554" 
d="M1475 0h-1311v1462h254v-1241h1057v-221zM948 -131v-156q0 -73 -9.5 -119.5t-37 -82.5t-78 -51.5t-131.5 -16.5v84q69 1 94 34t25 103h-121v205h258z" />
    <glyph glyph-name="lcommaaccent" unicode="&#x13c;" horiz-adv-x="532" 
d="M141 0v1483h250v-1483h-250zM395 -131v-156q0 -73 -9.5 -119.5t-37 -82.5t-78 -51.5t-131.5 -16.5v84q69 1 94 34t25 103h-121v205h258z" />
    <glyph glyph-name="Lcaron" unicode="&#x13d;" horiz-adv-x="1554" 
d="M944 1483v-185q0 -198 -63 -282.5t-213 -85.5v100q51 1 79 20t42 66t14 133h-137v234h278zM1475 0h-1311v1462h254v-1241h1057v-221z" />
    <glyph glyph-name="lcaron" unicode="&#x13e;" horiz-adv-x="735" 
d="M141 0v1483h250v-1483h-250zM735 1483v-185q0 -74 -9.5 -122.5t-35 -87.5t-73.5 -57t-123 -19v100q70 1 91 32t21 105h-112v234h241z" />
    <glyph glyph-name="Ldot" unicode="&#x13f;" horiz-adv-x="1554" 
d="M1475 0h-1311v1462h254v-1241h1057v-221zM942 649q-69 0 -117.5 48.5t-48.5 117.5t48.5 117.5t117.5 48.5t117.5 -48.5t48.5 -117.5t-48.5 -117.5t-117.5 -48.5z" />
    <glyph glyph-name="ldot" unicode="&#x140;" horiz-adv-x="905" 
d="M141 0v1483h250v-1483h-250zM659 588q-69 0 -117 48.5t-48 117.5t48 117.5t117 48.5t117.5 -48.5t48.5 -117.5t-48.5 -117.5t-117.5 -48.5z" />
    <glyph glyph-name="Lslash" unicode="&#x141;" horiz-adv-x="1552" 
d="M416 221h1057v-221h-1311v322l-131 -78v254l131 77v887h254v-737l655 387v-254l-655 -387v-250z" />
    <glyph glyph-name="lslash" unicode="&#x142;" horiz-adv-x="595" 
d="M565 1126v-221l-143 -119v-786h-248v584l-143 -119v221l143 119v678h248v-475z" />
    <glyph glyph-name="Nacute" unicode="&#x143;" horiz-adv-x="1798" 
d="M1335 1896l-327 -317h-220l189 317h358zM1391 1462h243v-1462h-288l-932 1130h-8v-1130h-242v1462h297l921 -1120h9v1120z" />
    <glyph glyph-name="nacute" unicode="&#x144;" horiz-adv-x="1441" 
d="M1157 1534l-328 -317h-219l189 317h358zM385 1102v-141h8q154 167 434 167q103 0 187.5 -22.5t149 -68t100.5 -121.5t36 -177v-739h-249v651q0 144 -77.5 208.5t-230.5 64.5q-66 0 -126.5 -18.5t-112 -56.5t-82.5 -104.5t-31 -154.5v-590h-250v1102h244z" />
    <glyph glyph-name="Ncommaaccent" unicode="&#x145;" horiz-adv-x="1798" 
d="M1391 1462h243v-1462h-288l-932 1130h-8v-1130h-242v1462h297l921 -1120h9v1120zM1028 -131v-156q0 -73 -9.5 -119.5t-37 -82.5t-78 -51.5t-131.5 -16.5v84q69 1 94 34t25 103h-121v205h258z" />
    <glyph glyph-name="ncommaaccent" unicode="&#x146;" horiz-adv-x="1441" 
d="M385 1102v-141h8q154 167 434 167q103 0 187.5 -22.5t149 -68t100.5 -121.5t36 -177v-739h-249v651q0 144 -77.5 208.5t-230.5 64.5q-66 0 -126.5 -18.5t-112 -56.5t-82.5 -104.5t-31 -154.5v-590h-250v1102h244zM850 -131v-156q0 -73 -9.5 -119.5t-37 -82.5t-78 -51.5
t-131.5 -16.5v84q69 1 94 34t25 103h-121v205h258z" />
    <glyph glyph-name="Ncaron" unicode="&#x147;" horiz-adv-x="1798" 
d="M1055 1896h295l-299 -317h-303l-299 317h294l152 -178h8zM1391 1462h243v-1462h-288l-932 1130h-8v-1130h-242v1462h297l921 -1120h9v1120z" />
    <glyph glyph-name="ncaron" unicode="&#x148;" horiz-adv-x="1441" 
d="M877 1534h294l-299 -317h-303l-299 317h295l152 -178h8zM385 1102v-141h8q154 167 434 167q103 0 187.5 -22.5t149 -68t100.5 -121.5t36 -177v-739h-249v651q0 144 -77.5 208.5t-230.5 64.5q-66 0 -126.5 -18.5t-112 -56.5t-82.5 -104.5t-31 -154.5v-590h-250v1102h244z
" />
    <glyph glyph-name="napostrophe" unicode="&#x149;" horiz-adv-x="1632" 
d="M262 1483v-185q0 -73 -9.5 -122t-35 -88t-74 -57t-123.5 -19v100q70 1 91.5 32t21.5 105h-113v234h242zM575 1102v-141h9q154 167 434 167q103 0 187.5 -22.5t149 -68t100.5 -121.5t36 -177v-739h-250v651q0 144 -77 208.5t-230 64.5q-66 0 -126.5 -18.5t-112 -56.5
t-82.5 -104.5t-31 -154.5v-590h-250v1102h243z" />
    <glyph glyph-name="Eng" unicode="&#x14a;" horiz-adv-x="1798" 
d="M1391 1462h243v-1442q0 -421 -571 -421q-274 0 -420.5 105t-146.5 316v21h243v-21q0 -107 84.5 -162t239.5 -55q149 0 234 50t94 147l-977 1137h-8v-1137h-242v1462h297l921 -1073h9v1073z" />
    <glyph glyph-name="eng" unicode="&#x14b;" horiz-adv-x="1441" 
d="M827 1128q103 0 187.5 -22.5t149 -68t100.5 -121.5t36 -177v-872q0 -154 -77.5 -216.5t-266.5 -62.5q-96 0 -172 13v211q57 -11 121 -11q77 0 111.5 25.5t34.5 95.5v729q0 144 -77.5 208.5t-230.5 64.5q-66 0 -126.5 -18.5t-112 -56.5t-82.5 -104.5t-31 -154.5v-590h-250
v1102h244v-141h8q154 167 434 167z" />
    <glyph glyph-name="Omacron" unicode="&#x14c;" horiz-adv-x="1863" 
d="M1317 1604h-770v184h770v-184zM932 1499q179 0 330.5 -48.5t266.5 -141.5t180 -241t65 -337t-65 -337t-180 -241t-266.5 -141.5t-330.5 -48.5t-330.5 48.5t-266.5 141.5t-180 241t-65 337t65 337t180 241t266.5 141.5t330.5 48.5zM932 182q122 0 223.5 33.5t178.5 99.5
t120 172.5t43 243.5t-43 243.5t-120 172.5t-178.5 99.5t-223.5 33.5t-223.5 -33.5t-178.5 -99.5t-120 -172.5t-43 -243.5t43 -243.5t120 -172.5t178.5 -99.5t223.5 -33.5z" />
    <glyph glyph-name="omacron" unicode="&#x14d;" horiz-adv-x="1449" 
d="M1110 1276h-770v184h770v-184zM725 1137q302 0 473.5 -155t171.5 -431t-171.5 -431t-473.5 -155t-473.5 155t-171.5 431t171.5 431t473.5 155zM725 170q183 0 285 97.5t102 283.5t-102 283.5t-285 97.5t-285 -97.5t-102 -283.5t102 -283.5t285 -97.5z" />
    <glyph glyph-name="Obreve" unicode="&#x14e;" horiz-adv-x="1863" 
d="M1343 1894q-1 -82 -35 -146t-91 -102t-129 -57.5t-156 -19.5t-156 19.5t-129.5 57.5t-91.5 102t-35 146h219q15 -133 193 -133q177 0 192 133h219zM932 1499q179 0 330.5 -48.5t266.5 -141.5t180 -241t65 -337t-65 -337t-180 -241t-266.5 -141.5t-330.5 -48.5
t-330.5 48.5t-266.5 141.5t-180 241t-65 337t65 337t180 241t266.5 141.5t330.5 48.5zM932 182q122 0 223.5 33.5t178.5 99.5t120 172.5t43 243.5t-43 243.5t-120 172.5t-178.5 99.5t-223.5 33.5t-223.5 -33.5t-178.5 -99.5t-120 -172.5t-43 -243.5t43 -243.5t120 -172.5
t178.5 -99.5t223.5 -33.5z" />
    <glyph glyph-name="obreve" unicode="&#x14f;" horiz-adv-x="1449" 
d="M1137 1532q-1 -82 -35 -146t-91.5 -102.5t-130 -58t-155.5 -19.5t-155.5 19.5t-130 58t-91.5 102.5t-35 146h219q15 -133 193 -133t193 133h219zM725 1137q302 0 473.5 -155t171.5 -431t-171.5 -431t-473.5 -155t-473.5 155t-171.5 431t171.5 431t473.5 155zM725 170
q183 0 285 97.5t102 283.5t-102 283.5t-285 97.5t-285 -97.5t-102 -283.5t102 -283.5t285 -97.5z" />
    <glyph glyph-name="Ohungarumlaut" unicode="&#x150;" horiz-adv-x="1863" 
d="M1067 1896l-258 -317h-219l147 317h330zM1532 1896l-258 -317h-219l147 317h330zM932 1499q179 0 330.5 -48.5t266.5 -141.5t180 -241t65 -337t-65 -337t-180 -241t-266.5 -141.5t-330.5 -48.5t-330.5 48.5t-266.5 141.5t-180 241t-65 337t65 337t180 241t266.5 141.5
t330.5 48.5zM932 182q122 0 223.5 33.5t178.5 99.5t120 172.5t43 243.5t-43 243.5t-120 172.5t-178.5 99.5t-223.5 33.5t-223.5 -33.5t-178.5 -99.5t-120 -172.5t-43 -243.5t43 -243.5t120 -172.5t178.5 -99.5t223.5 -33.5z" />
    <glyph glyph-name="ohungarumlaut" unicode="&#x151;" horiz-adv-x="1449" 
d="M860 1532l-258 -318h-219l147 318h330zM1325 1532l-258 -318h-219l147 318h330zM725 1137q302 0 473.5 -155t171.5 -431t-171.5 -431t-473.5 -155t-473.5 155t-171.5 431t171.5 431t473.5 155zM725 170q183 0 285 97.5t102 283.5t-102 283.5t-285 97.5t-285 -97.5
t-102 -283.5t102 -283.5t285 -97.5z" />
    <glyph glyph-name="OE" unicode="&#x152;" horiz-adv-x="2891" 
d="M1741 219h1034v-219h-1278v203h-8q-96 -116 -247 -178t-320 -62q-140 0 -264 30t-228 92t-179.5 152t-118 216.5t-42.5 277.5t42.5 277.5t118 216.5t179.5 152t228 92t264 30q169 0 320 -61.5t247 -177.5h8v202h1251v-219h-1007v-373h977v-213h-977v-438zM932 182
q122 0 223.5 33.5t178.5 99.5t120 172.5t43 243.5t-43 243.5t-120 172.5t-178.5 99.5t-223.5 33.5t-223.5 -33.5t-178.5 -99.5t-120 -172.5t-43 -243.5t43 -243.5t120 -172.5t178.5 -99.5t223.5 -33.5z" />
    <glyph glyph-name="oe" unicode="&#x153;" horiz-adv-x="2369" 
d="M2290 551q0 -28 -4 -64h-961q13 -162 108 -243.5t257 -81.5q77 0 136.5 17t95 45t54.5 58.5t25 63.5h276q-8 -58 -31 -110.5t-69 -103t-110.5 -87t-161.5 -58.5t-215 -22q-351 0 -494 228q-75 -111 -201 -169.5t-290 -58.5q-294 0 -459.5 155t-165.5 431t165.5 431
t459.5 155q164 0 290 -58.5t201 -169.5q143 228 483 228q284 0 447.5 -155.5t163.5 -430.5zM1679 940q-138 0 -227.5 -66t-116.5 -196h688q-27 130 -116.5 196t-227.5 66zM705 170q173 0 269.5 97.5t96.5 283.5t-96.5 283.5t-269.5 97.5t-270 -97.5t-97 -283.5t97 -283.5
t270 -97.5z" />
    <glyph glyph-name="Racute" unicode="&#x154;" horiz-adv-x="1738" 
d="M1294 1896l-327 -317h-219l188 317h358zM1296 614l377 -614h-293l-362 598h-600v-598h-254v1462h977q261 0 382.5 -102.5t121.5 -329.5q0 -343 -349 -407v-9zM1122 821q125 0 183.5 50.5t58.5 158.5t-58.5 158.5t-183.5 50.5h-704v-418h704z" />
    <glyph glyph-name="racute" unicode="&#x155;" horiz-adv-x="1011" 
d="M985 1534l-328 -317h-219l189 317h358zM141 1102h244v-146h8q153 174 430 174q80 0 133 -16v-246q-83 19 -159 19q-61 0 -115.5 -9t-109 -32t-93.5 -58.5t-63.5 -92.5t-24.5 -130v-565h-250v1102z" />
    <glyph glyph-name="Rcommaaccent" unicode="&#x156;" horiz-adv-x="1738" 
d="M1296 614l377 -614h-293l-362 598h-600v-598h-254v1462h977q261 0 382.5 -102.5t121.5 -329.5q0 -343 -349 -407v-9zM1122 821q125 0 183.5 50.5t58.5 158.5t-58.5 158.5t-183.5 50.5h-704v-418h704zM1028 -131v-156q0 -73 -9.5 -119.5t-37 -82.5t-78 -51.5t-131.5 -16.5
v84q69 1 94 34t25 103h-121v205h258z" />
    <glyph glyph-name="rcommaaccent" unicode="&#x157;" horiz-adv-x="1011" 
d="M141 1102h244v-146h8q153 174 430 174q80 0 133 -16v-246q-83 19 -159 19q-61 0 -115.5 -9t-109 -32t-93.5 -58.5t-63.5 -92.5t-24.5 -130v-565h-250v1102zM395 -131v-156q0 -73 -9.5 -119.5t-37 -82.5t-78 -51.5t-131.5 -16.5v84q69 1 94 34t25 103h-121v205h258z" />
    <glyph glyph-name="Rcaron" unicode="&#x158;" horiz-adv-x="1738" 
d="M1014 1896h295l-299 -317h-303l-299 317h294l152 -178h8zM1296 614l377 -614h-293l-362 598h-600v-598h-254v1462h977q261 0 382.5 -102.5t121.5 -329.5q0 -343 -349 -407v-9zM1122 821q125 0 183.5 50.5t58.5 158.5t-58.5 158.5t-183.5 50.5h-704v-418h704z" />
    <glyph glyph-name="rcaron" unicode="&#x159;" horiz-adv-x="1011" 
d="M705 1534h294l-299 -317h-303l-299 317h295l152 -178h8zM141 1102h244v-146h8q153 174 430 174q80 0 133 -16v-246q-83 19 -159 19q-61 0 -115.5 -9t-109 -32t-93.5 -58.5t-63.5 -92.5t-24.5 -130v-565h-250v1102z" />
    <glyph glyph-name="Sacute" unicode="&#x15a;" horiz-adv-x="1613" 
d="M1206 1896l-327 -317h-220l189 317h358zM1212 1018q-2 64 -27 112.5t-64.5 78t-97 48.5t-119 26t-136.5 7q-181 0 -285 -51t-104 -160q0 -86 55.5 -124.5t165.5 -51.5l524 -63q89 -11 157.5 -35t128.5 -70t92 -124t32 -185q0 -124 -53.5 -214.5t-154.5 -144t-233.5 -79
t-301.5 -25.5q-130 0 -236.5 15.5t-202 53.5t-161 97.5t-105 152t-41.5 212.5h272q3 -75 29.5 -132t68.5 -93t103.5 -58t128 -30.5t148.5 -8.5q211 0 333 61t121 177q-1 55 -18 92.5t-51.5 60t-74.5 34.5t-99 19l-504 64q-89 12 -158 36t-126.5 67t-88.5 113.5t-31 166.5
q0 112 50 197t141.5 136.5t212 77t268.5 25.5q119 0 221 -15t193.5 -50.5t156 -89.5t103.5 -137t41 -189h-273z" />
    <glyph glyph-name="sacute" unicode="&#x15b;" horiz-adv-x="1329" 
d="M1065 1534l-328 -317h-219l189 317h358zM950 768q-11 178 -321 178q-138 0 -208.5 -34t-70.5 -93q0 -54 37.5 -81.5t128.5 -37.5l397 -47q58 -6 104.5 -18.5t91 -36.5t74.5 -59t48 -90t18 -125q0 -359 -590 -359q-104 0 -189.5 11.5t-164 40t-133 73.5t-88 117t-35.5 166
h256q10 -215 357 -215q156 0 240.5 39.5t84.5 111.5q0 62 -40 92.5t-134 42.5l-383 50q-58 7 -104.5 20t-91 36.5t-74.5 57t-48 83.5t-18 114q0 112 72 188t189.5 110t273.5 34q118 0 218 -20.5t181.5 -62.5t128.5 -115t49 -171h-256z" />
    <glyph glyph-name="Scircumflex" unicode="&#x15c;" horiz-adv-x="1613" 
d="M942 1579l-151 178h-9l-151 -178h-295l299 317h303l299 -317h-295zM1212 1018q-2 64 -27 112.5t-64.5 78t-97 48.5t-119 26t-136.5 7q-181 0 -285 -51t-104 -160q0 -86 55.5 -124.5t165.5 -51.5l524 -63q89 -11 157.5 -35t128.5 -70t92 -124t32 -185q0 -124 -53.5 -214.5
t-154.5 -144t-233.5 -79t-301.5 -25.5q-130 0 -236.5 15.5t-202 53.5t-161 97.5t-105 152t-41.5 212.5h272q3 -75 29.5 -132t68.5 -93t103.5 -58t128 -30.5t148.5 -8.5q211 0 333 61t121 177q-1 55 -18 92.5t-51.5 60t-74.5 34.5t-99 19l-504 64q-89 12 -158 36t-126.5 67
t-88.5 113.5t-31 166.5q0 112 50 197t141.5 136.5t212 77t268.5 25.5q119 0 221 -15t193.5 -50.5t156 -89.5t103.5 -137t41 -189h-273z" />
    <glyph glyph-name="scircumflex" unicode="&#x15d;" horiz-adv-x="1329" 
d="M784 1217l-151 178h-8l-152 -178h-295l299 317h303l299 -317h-295zM950 768q-11 178 -321 178q-138 0 -208.5 -34t-70.5 -93q0 -54 37.5 -81.5t128.5 -37.5l397 -47q58 -6 104.5 -18.5t91 -36.5t74.5 -59t48 -90t18 -125q0 -359 -590 -359q-104 0 -189.5 11.5t-164 40
t-133 73.5t-88 117t-35.5 166h256q10 -215 357 -215q156 0 240.5 39.5t84.5 111.5q0 62 -40 92.5t-134 42.5l-383 50q-58 7 -104.5 20t-91 36.5t-74.5 57t-48 83.5t-18 114q0 112 72 188t189.5 110t273.5 34q118 0 218 -20.5t181.5 -62.5t128.5 -115t49 -171h-256z" />
    <glyph glyph-name="Scedilla" unicode="&#x15e;" horiz-adv-x="1613" 
d="M1534 426q0 -116 -47.5 -202.5t-136.5 -141t-208 -83.5t-270 -34l-34 -53q44 6 82 6q114 0 171.5 -48.5t57.5 -135.5q0 -199 -338 -199q-138 0 -240 27v137h9q127 -37 217 -37q116 0 116 72q0 71 -116 71q-30 0 -78 -5t-62 -11h-8v72l68 104q-662 25 -672 529h272
q3 -75 29.5 -132t68.5 -93t103.5 -58t128 -30.5t148.5 -8.5q211 0 333 61t121 177q-1 55 -18 92.5t-51.5 60t-74.5 34.5t-99 19l-504 64q-89 12 -158 36t-126.5 67t-88.5 113.5t-31 166.5q0 112 50 197t141.5 136.5t212 77t268.5 25.5q119 0 221 -15t193.5 -50.5t156 -89.5
t103.5 -137t41 -189h-273q-2 64 -27 112.5t-64.5 78t-97 48.5t-119 26t-136.5 7q-181 0 -285 -51t-104 -160q0 -86 55.5 -124.5t165.5 -51.5l524 -63q89 -11 157.5 -35t128.5 -70t92 -124t32 -185z" />
    <glyph glyph-name="scedilla" unicode="&#x15f;" horiz-adv-x="1329" 
d="M1249 324q0 -334 -510 -357l-34 -55q43 6 81 6q114 0 172 -48.5t58 -135.5q0 -199 -338 -199q-138 0 -240 27v137h8q127 -37 218 -37q116 0 116 72q0 71 -116 71q-30 0 -78 -5t-62 -11h-8v72l68 106q-525 21 -535 406h256q10 -215 357 -215q156 0 240.5 39.5t84.5 111.5
q0 62 -40 92.5t-134 42.5l-383 50q-58 7 -104.5 20t-91 36.5t-74.5 57t-48 83.5t-18 114q0 112 72 188t189.5 110t273.5 34q118 0 218 -20.5t181.5 -62.5t128.5 -115t49 -171h-256q-11 178 -321 178q-138 0 -208.5 -34t-70.5 -93q0 -54 37.5 -81.5t128.5 -37.5l397 -47
q58 -6 104.5 -18.5t91 -36.5t74.5 -59t48 -90t18 -125z" />
    <glyph glyph-name="Scaron" unicode="&#x160;" horiz-adv-x="1613" 
d="M926 1896h295l-299 -317h-304l-299 317h295l152 -178h8zM1212 1018q-2 64 -27 112.5t-64.5 78t-97 48.5t-119 26t-136.5 7q-181 0 -285 -51t-104 -160q0 -86 55.5 -124.5t165.5 -51.5l524 -63q89 -11 157.5 -35t128.5 -70t92 -124t32 -185q0 -124 -53.5 -214.5
t-154.5 -144t-233.5 -79t-301.5 -25.5q-130 0 -236.5 15.5t-202 53.5t-161 97.5t-105 152t-41.5 212.5h272q3 -75 29.5 -132t68.5 -93t103.5 -58t128 -30.5t148.5 -8.5q211 0 333 61t121 177q-1 55 -18 92.5t-51.5 60t-74.5 34.5t-99 19l-504 64q-89 12 -158 36t-126.5 67
t-88.5 113.5t-31 166.5q0 112 50 197t141.5 136.5t212 77t268.5 25.5q119 0 221 -15t193.5 -50.5t156 -89.5t103.5 -137t41 -189h-273z" />
    <glyph glyph-name="scaron" unicode="&#x161;" horiz-adv-x="1329" 
d="M784 1534h295l-299 -317h-303l-299 317h295l152 -178h8zM950 768q-11 178 -321 178q-138 0 -208.5 -34t-70.5 -93q0 -54 37.5 -81.5t128.5 -37.5l397 -47q58 -6 104.5 -18.5t91 -36.5t74.5 -59t48 -90t18 -125q0 -359 -590 -359q-104 0 -189.5 11.5t-164 40t-133 73.5
t-88 117t-35.5 166h256q10 -215 357 -215q156 0 240.5 39.5t84.5 111.5q0 62 -40 92.5t-134 42.5l-383 50q-58 7 -104.5 20t-91 36.5t-74.5 57t-48 83.5t-18 114q0 112 72 188t189.5 110t273.5 34q118 0 218 -20.5t181.5 -62.5t128.5 -115t49 -171h-256z" />
    <glyph glyph-name="uni0162" unicode="&#x162;" horiz-adv-x="1597" 
d="M926 0h-41l-58 -88q44 6 82 6q114 0 172 -48.5t58 -135.5q0 -199 -338 -199q-138 0 -240 27v137h8q127 -37 217 -37q117 0 117 72q0 71 -117 71q-30 0 -77.5 -5t-61.5 -11h-8v72l90 139h-57v1239h-617v223h1487v-223h-616v-1239z" />
    <glyph glyph-name="uni0163" unicode="&#x163;" horiz-adv-x="872" 
d="M629 -82q114 0 171.5 -48.5t57.5 -135.5q0 -199 -338 -199q-137 0 -239 27v137h8q127 -37 217 -37q117 0 117 72q0 71 -117 71q-30 0 -77.5 -5t-61.5 -11h-9v72l84 133q-116 22 -165.5 89.5t-49.5 197.5v641h-196v180h196v305h250v-305h314v-180h-314v-603
q0 -68 33.5 -96t103.5 -28q100 0 172 16v-211q-81 -18 -194 -18l-45 -70q43 6 82 6z" />
    <glyph glyph-name="Tcaron" unicode="&#x164;" horiz-adv-x="1597" 
d="M954 1896h295l-299 -317h-303l-299 317h295l152 -178h8zM1542 1462v-223h-616v-1239h-254v1239h-617v223h1487z" />
    <glyph glyph-name="tcaron" unicode="&#x165;" horiz-adv-x="921" 
d="M840 1669v-184q0 -73 -9.5 -122t-35 -88t-74 -57.5t-123.5 -19.5v100q70 1 91.5 32.5t21.5 105.5h-113v233h242zM614 195q100 0 172 16v-211q-81 -18 -196 -18q-200 0 -281.5 68t-81.5 231v641h-196v180h196v305h250v-305h314v-180h-314v-603q0 -68 33.5 -96t103.5 -28z
" />
    <glyph glyph-name="Tbar" unicode="&#x166;" horiz-adv-x="1597" 
d="M1542 1239h-616v-430h317v-197h-317v-612h-254v612h-318v197h318v430h-617v223h1487v-223z" />
    <glyph glyph-name="tbar" unicode="&#x167;" horiz-adv-x="872" 
d="M791 922h-314v-181h314v-159h-314v-263q0 -68 33.5 -96t103.5 -28q100 0 172 16v-211q-81 -18 -196 -18q-200 0 -281.5 68t-81.5 231v301h-196v159h196v181h-196v180h196v305h250v-305h314v-180z" />
    <glyph glyph-name="Utilde" unicode="&#x168;" horiz-adv-x="1794" 
d="M1098 1554q-47 0 -105 19.5t-103 43t-94 43t-79 19.5q-34 0 -47.5 -22t-12.5 -82h-200q0 86 20.5 148t56 95t75 47.5t85.5 14.5q47 0 105 -19.5t103 -43t94 -43t79 -19.5q33 0 47 23t13 80h200q0 -86 -20.5 -148t-56 -94.5t-75 -47t-85.5 -14.5zM1376 1462h254v-903
q0 -153 -53.5 -268t-151.5 -186.5t-230.5 -106.5t-297.5 -35t-297.5 35t-230.5 106.5t-151.5 186.5t-53.5 268v903h254v-895q0 -100 34.5 -175t99 -121.5t151 -69.5t194.5 -23t194.5 23t151 69.5t99 121.5t34.5 175v895z" />
    <glyph glyph-name="utilde" unicode="&#x169;" horiz-adv-x="1441" 
d="M922 1190q-47 0 -105 19.5t-103 43t-94 43t-79 19.5q-33 0 -47 -22.5t-13 -82.5h-200q0 86 20.5 148.5t56 95.5t75 47.5t85.5 14.5q47 0 105 -19.5t103 -43t94 -43t79 -19.5q33 0 46.5 22.5t12.5 79.5h201q0 -86 -20.5 -148t-56 -94t-75 -46.5t-85.5 -14.5zM1057 0v141
h-8q-155 -168 -435 -168q-103 0 -187.5 22.5t-149 68t-100.5 121.5t-36 177v740h250v-651q0 -144 77 -208.5t230 -64.5q66 0 126.5 18.5t112.5 56.5t83 104.5t31 154.5v590h249v-1102h-243z" />
    <glyph glyph-name="Umacron" unicode="&#x16a;" horiz-adv-x="1794" 
d="M1282 1604h-770v184h770v-184zM1376 1462h254v-903q0 -153 -53.5 -268t-151.5 -186.5t-230.5 -106.5t-297.5 -35t-297.5 35t-230.5 106.5t-151.5 186.5t-53.5 268v903h254v-895q0 -100 34.5 -175t99 -121.5t151 -69.5t194.5 -23t194.5 23t151 69.5t99 121.5t34.5 175v895
z" />
    <glyph glyph-name="umacron" unicode="&#x16b;" horiz-adv-x="1441" 
d="M1106 1276h-770v184h770v-184zM1057 0v141h-8q-155 -168 -435 -168q-103 0 -187.5 22.5t-149 68t-100.5 121.5t-36 177v740h250v-651q0 -144 77 -208.5t230 -64.5q66 0 126.5 18.5t112.5 56.5t83 104.5t31 154.5v590h249v-1102h-243z" />
    <glyph glyph-name="Ubreve" unicode="&#x16c;" horiz-adv-x="1794" 
d="M1309 1894q-1 -82 -35 -146t-91.5 -102t-129.5 -57.5t-156 -19.5t-156 19.5t-129.5 57.5t-91.5 102t-35 146h220q15 -133 192 -133q178 0 193 133h219zM1376 1462h254v-903q0 -153 -53.5 -268t-151.5 -186.5t-230.5 -106.5t-297.5 -35t-297.5 35t-230.5 106.5
t-151.5 186.5t-53.5 268v903h254v-895q0 -100 34.5 -175t99 -121.5t151 -69.5t194.5 -23t194.5 23t151 69.5t99 121.5t34.5 175v895z" />
    <glyph glyph-name="ubreve" unicode="&#x16d;" horiz-adv-x="1441" 
d="M1133 1532q-1 -82 -35 -146t-91.5 -102.5t-130 -58t-155.5 -19.5t-155.5 19.5t-130 58t-91.5 102.5t-35 146h219q15 -133 193 -133q177 0 192 133h220zM1057 0v141h-8q-155 -168 -435 -168q-103 0 -187.5 22.5t-149 68t-100.5 121.5t-36 177v740h250v-651
q0 -144 77 -208.5t230 -64.5q66 0 126.5 18.5t112.5 56.5t83 104.5t31 154.5v590h249v-1102h-243z" />
    <glyph glyph-name="Uring" unicode="&#x16e;" horiz-adv-x="1794" 
d="M899 1532q-126 0 -211.5 67t-85.5 177t85.5 176.5t211.5 66.5t211.5 -66.5t85.5 -176.5t-85.5 -177t-211.5 -67zM899 1675q49 0 83 28t34 73t-34 72.5t-83 27.5t-83 -27.5t-34 -72.5t34 -73t83 -28zM1376 1462h254v-903q0 -153 -53.5 -268t-151.5 -186.5t-230.5 -106.5
t-297.5 -35t-297.5 35t-230.5 106.5t-151.5 186.5t-53.5 268v903h254v-895q0 -100 34.5 -175t99 -121.5t151 -69.5t194.5 -23t194.5 23t151 69.5t99 121.5t34.5 175v895z" />
    <glyph glyph-name="uring" unicode="&#x16f;" horiz-adv-x="1441" 
d="M723 1206q-126 0 -211.5 67t-85.5 177t85.5 177t211.5 67t211.5 -67t85.5 -177t-85.5 -177t-211.5 -67zM723 1350q49 0 83 27.5t34 72.5t-34 72.5t-83 27.5t-83 -27.5t-34 -72.5t34 -72.5t83 -27.5zM1057 0v141h-8q-155 -168 -435 -168q-103 0 -187.5 22.5t-149 68
t-100.5 121.5t-36 177v740h250v-651q0 -144 77 -208.5t230 -64.5q66 0 126.5 18.5t112.5 56.5t83 104.5t31 154.5v590h249v-1102h-243z" />
    <glyph glyph-name="Uhungarumlaut" unicode="&#x170;" horiz-adv-x="1794" 
d="M1032 1896l-258 -317h-219l147 317h330zM1497 1896l-258 -317h-219l147 317h330zM1376 1462h254v-903q0 -153 -53.5 -268t-151.5 -186.5t-230.5 -106.5t-297.5 -35t-297.5 35t-230.5 106.5t-151.5 186.5t-53.5 268v903h254v-895q0 -100 34.5 -175t99 -121.5t151 -69.5
t194.5 -23t194.5 23t151 69.5t99 121.5t34.5 175v895z" />
    <glyph glyph-name="uhungarumlaut" unicode="&#x171;" horiz-adv-x="1441" 
d="M856 1532l-258 -318h-219l147 318h330zM1321 1532l-258 -318h-219l147 318h330zM1057 0v141h-8q-155 -168 -435 -168q-103 0 -187.5 22.5t-149 68t-100.5 121.5t-36 177v740h250v-651q0 -144 77 -208.5t230 -64.5q66 0 126.5 18.5t112.5 56.5t83 104.5t31 154.5v590h249
v-1102h-243z" />
    <glyph glyph-name="Uogonek" unicode="&#x172;" horiz-adv-x="1794" 
d="M1376 1462h254v-903q0 -225 -112 -364t-316 -195q-71 -29 -119 -60.5t-70.5 -63.5t-31 -58.5t-8.5 -55.5q0 -37 32.5 -55t77.5 -18q61 0 119 16v-154q-75 -16 -162 -16q-327 0 -327 199q0 47 43 113.5t127 115.5q-162 2 -291.5 37.5t-226.5 107t-149 186t-52 265.5v903
h254v-895q0 -100 34.5 -175t99 -121.5t151 -69.5t194.5 -23t194.5 23t151 69.5t99 121.5t34.5 175v895z" />
    <glyph glyph-name="uogonek" unicode="&#x173;" horiz-adv-x="1441" 
d="M1300 0q-71 -29 -119 -60.5t-70.5 -63.5t-31 -58.5t-8.5 -55.5q0 -37 33 -55t78 -18q60 0 118 16v-154q-75 -16 -161 -16q-328 0 -328 199q0 25 14 58.5t42 72t79 75.5t115 60h-4v141h-8q-155 -168 -435 -168q-103 0 -187.5 22.5t-149 68t-100.5 121.5t-36 177v740h250
v-651q0 -144 77 -208.5t230 -64.5q66 0 126.5 18.5t112.5 56.5t83 104.5t31 154.5v590h249v-1102z" />
    <glyph glyph-name="Wcircumflex" unicode="&#x174;" horiz-adv-x="2269" 
d="M1311 1579l-152 178h-8l-152 -178h-294l299 317h303l299 -317h-295zM1774 0h-295l-340 1135h-9l-344 -1135h-292l-465 1462h272l338 -1147h8l348 1147h285l348 -1147h8l336 1147h269z" />
    <glyph glyph-name="wcircumflex" unicode="&#x175;" horiz-adv-x="2150" 
d="M1237 1217l-152 178h-8l-151 -178h-295l299 317h303l299 -317h-295zM2109 1102l-450 -1102h-264l-310 821h-8l-309 -821h-264l-463 1102h268l324 -823h8l307 815h266l308 -818h8l311 826h268z" />
    <glyph glyph-name="Ycircumflex" unicode="&#x176;" horiz-adv-x="1644" 
d="M1001 1579l-151 178h-8l-152 -178h-295l299 317h303l299 -317h-295zM1630 1462l-680 -911v-551h-254v547l-682 915h308l501 -690l512 690h295z" />
    <glyph glyph-name="ycircumflex" unicode="&#x177;" horiz-adv-x="1372" 
d="M842 1217l-152 178h-8l-152 -178h-294l299 317h303l299 -317h-295zM1341 1102l-557 -1204q-80 -173 -188.5 -241.5t-284.5 -68.5q-118 0 -194 11v217q112 -15 176 -15q151 0 205 121l41 90l-508 1090h276l373 -846h8l377 846h276z" />
    <glyph glyph-name="Ydieresis" unicode="&#x178;" horiz-adv-x="1644" 
d="M449 1595v205h258v-205h-258zM952 1595v205h258v-205h-258zM1630 1462l-680 -911v-551h-254v547l-682 915h308l501 -690l512 690h295z" />
    <glyph glyph-name="Zacute" unicode="&#x179;" horiz-adv-x="1611" 
d="M1257 1896l-327 -317h-219l188 317h358zM1491 1255l-1016 -1032h1020v-223h-1403v207l1014 1032h-954v223h1339v-207z" />
    <glyph glyph-name="zacute" unicode="&#x17a;" horiz-adv-x="1259" 
d="M1077 1534l-327 -317h-220l189 317h358zM1159 0h-1083v207l733 696h-686v199h1036v-205l-733 -700h733v-197z" />
    <glyph glyph-name="Zdotaccent" unicode="&#x17b;" horiz-adv-x="1611" 
d="M692 1595v205h258v-205h-258zM1491 1255l-1016 -1032h1020v-223h-1403v207l1014 1032h-954v223h1339v-207z" />
    <glyph glyph-name="zdotaccent" unicode="&#x17c;" horiz-adv-x="1259" 
d="M512 1286v205h258v-205h-258zM1159 0h-1083v207l733 696h-686v199h1036v-205l-733 -700h733v-197z" />
    <glyph glyph-name="Zcaron" unicode="&#x17d;" horiz-adv-x="1611" 
d="M977 1896h295l-299 -317h-303l-299 317h295l151 -178h8zM1491 1255l-1016 -1032h1020v-223h-1403v207l1014 1032h-954v223h1339v-207z" />
    <glyph glyph-name="zcaron" unicode="&#x17e;" horiz-adv-x="1259" 
d="M797 1534h295l-299 -317h-304l-299 317h295l152 -178h8zM1159 0h-1083v207l733 696h-686v199h1036v-205l-733 -700h733v-197z" />
    <glyph glyph-name="florin" unicode="&#x192;" horiz-adv-x="1112" 
d="M997 1329q-46 0 -79 -6t-66 -22t-54.5 -49.5t-31.5 -84.5l-45 -233h287v-180h-322l-88 -447q-19 -100 -59.5 -168t-103 -105.5t-137 -53t-175.5 -15.5q-59 0 -113 8v195q73 -10 109 -10q46 0 79 5.5t66 21.5t54.5 49.5t31.5 84.5l84 435h-225v180h262l47 246
q19 100 59.5 168t103 105.5t137 53t175.5 15.5q52 0 113 -9v-194q-72 10 -109 10z" />
    <glyph glyph-name="Oslashacute" unicode="&#x1fe;" horiz-adv-x="1863" 
d="M1451 1896l-389 -317h-261l224 317h426zM1582 1260q192 -202 192 -529q0 -189 -65 -337t-180 -241t-266.5 -141.5t-330.5 -48.5q-312 0 -529 140l-188 -185l-121 100l188 185q-192 202 -192 528q0 189 65 337t180 241t266.5 141.5t330.5 48.5q314 0 529 -139l188 184
l120 -100zM367 731q0 -213 100 -347l816 802q-141 94 -351 94q-122 0 -223.5 -33.5t-178.5 -99.5t-120 -172.5t-43 -243.5zM932 182q122 0 223.5 33.5t178.5 99.5t120 172.5t43 243.5q0 213 -100 347l-817 -801q141 -95 352 -95z" />
    <glyph glyph-name="oslashacute" unicode="&#x1ff;" horiz-adv-x="1449" 
d="M1161 1534l-327 -317h-220l189 317h358zM1370 1059l-130 -120q130 -150 130 -388q0 -276 -171.5 -431t-473.5 -155q-255 0 -419 112l-124 -114l-102 78l131 121q-131 151 -131 389q0 276 171.5 431t473.5 155q257 0 420 -113l123 113zM338 551q0 -133 54 -222l581 536
q-95 67 -248 67q-183 0 -285 -97.5t-102 -283.5zM1112 551q0 131 -53 221l-581 -536q96 -66 247 -66q183 0 285 97.5t102 283.5z" />
    <glyph glyph-name="Scommaaccent" unicode="&#x218;" horiz-adv-x="1613" 
d="M1212 1018q-2 64 -27 112.5t-64.5 78t-97 48.5t-119 26t-136.5 7q-181 0 -285 -51t-104 -160q0 -86 55.5 -124.5t165.5 -51.5l524 -63q89 -11 157.5 -35t128.5 -70t92 -124t32 -185q0 -124 -53.5 -214.5t-154.5 -144t-233.5 -79t-301.5 -25.5q-130 0 -236.5 15.5
t-202 53.5t-161 97.5t-105 152t-41.5 212.5h272q3 -75 29.5 -132t68.5 -93t103.5 -58t128 -30.5t148.5 -8.5q211 0 333 61t121 177q-1 55 -18 92.5t-51.5 60t-74.5 34.5t-99 19l-504 64q-89 12 -158 36t-126.5 67t-88.5 113.5t-31 166.5q0 112 50 197t141.5 136.5t212 77
t268.5 25.5q119 0 221 -15t193.5 -50.5t156 -89.5t103.5 -137t41 -189h-273zM920 -131v-156q0 -73 -9.5 -119.5t-37 -82.5t-78 -51.5t-131.5 -16.5v84q69 1 93.5 33.5t24.5 103.5h-120v205h258z" />
    <glyph glyph-name="scommaaccent" unicode="&#x219;" horiz-adv-x="1329" 
d="M950 768q-11 178 -321 178q-138 0 -208.5 -34t-70.5 -93q0 -54 37.5 -81.5t128.5 -37.5l397 -47q58 -6 104.5 -18.5t91 -36.5t74.5 -59t48 -90t18 -125q0 -359 -590 -359q-104 0 -189.5 11.5t-164 40t-133 73.5t-88 117t-35.5 166h256q10 -215 357 -215q156 0 240.5 39.5
t84.5 111.5q0 62 -40 92.5t-134 42.5l-383 50q-58 7 -104.5 20t-91 36.5t-74.5 57t-48 83.5t-18 114q0 112 72 188t189.5 110t273.5 34q118 0 218 -20.5t181.5 -62.5t128.5 -115t49 -171h-256zM788 -131v-156q0 -73 -9.5 -119.5t-37 -82.5t-78 -51.5t-131.5 -16.5v84
q69 1 94 34t25 103h-121v205h258z" />
    <glyph glyph-name="uni021A" unicode="&#x21a;" horiz-adv-x="1597" 
d="M1542 1462v-223h-616v-1239h-254v1239h-617v223h1487zM928 -131v-156q0 -73 -9.5 -119.5t-37 -82.5t-78 -51.5t-131.5 -16.5v84q69 1 94 34t25 103h-121v205h258z" />
    <glyph glyph-name="uni021B" unicode="&#x21b;" horiz-adv-x="872" 
d="M614 195q100 0 172 16v-211q-81 -18 -196 -18q-200 0 -281.5 68t-81.5 231v641h-196v180h196v305h250v-305h314v-180h-314v-603q0 -68 33.5 -96t103.5 -28zM637 -131v-156q0 -73 -9.5 -119.5t-37 -82.5t-78 -51.5t-131.5 -16.5v84q69 1 94 34t25 103h-121v205h258z" />
    <glyph glyph-name="uni0237" unicode="&#x237;" horiz-adv-x="532" 
d="M-4 -199q77 0 111 25.5t34 95.5v1180h250v-1235q0 -154 -77.5 -216.5t-266.5 -62.5q-96 0 -172 13v211q57 -11 121 -11z" />
    <glyph glyph-name="uni02BC" unicode="&#x2bc;" horiz-adv-x="606" 
d="M442 1483v-185q0 -198 -63 -282.5t-213 -85.5v100q51 1 79 20t42 66t14 133h-137v234h278z" />
    <glyph glyph-name="circumflex" unicode="&#x2c6;" horiz-adv-x="1228" 
d="M770 1214l-152 179h-8l-151 -179h-295l299 318h303l299 -318h-295z" />
    <glyph glyph-name="caron" unicode="&#x2c7;" horiz-adv-x="1228" 
d="M770 1532h295l-299 -318h-303l-299 318h295l151 -178h8z" />
    <glyph glyph-name="breve" unicode="&#x2d8;" horiz-adv-x="1150" 
d="M987 1530q-1 -82 -35 -146t-91.5 -102.5t-130 -58t-155.5 -19.5q-175 0 -291.5 82.5t-119.5 243.5h219q15 -133 192 -133q178 0 193 133h219z" />
    <glyph glyph-name="dotaccent" unicode="&#x2d9;" horiz-adv-x="585" 
d="M164 1286v205h258v-205h-258z" />
    <glyph glyph-name="ring" unicode="&#x2da;" horiz-adv-x="921" 
d="M461 1206q-126 0 -211.5 67t-85.5 177t85.5 177t211.5 67t211.5 -67t85.5 -177t-85.5 -177t-211.5 -67zM461 1350q49 0 83 27.5t34 72.5t-34 72.5t-83 27.5t-83 -27.5t-34 -72.5t34 -72.5t83 -27.5z" />
    <glyph glyph-name="ogonek" unicode="&#x2db;" horiz-adv-x="817" 
d="M535 -311q60 0 118 16v-154q-75 -16 -161 -16q-328 0 -328 199q0 23 10.5 52t35 64.5t60 67t92 59.5t123.5 43l168 -20q-71 -29 -119 -60.5t-70.5 -63.5t-31 -58.5t-8.5 -55.5q0 -37 33 -55t78 -18z" />
    <glyph glyph-name="tilde" unicode="&#x2dc;" horiz-adv-x="1206" 
d="M805 1190q-47 0 -105 19.5t-103 43t-94 43t-79 19.5q-33 0 -46.5 -22.5t-12.5 -82.5h-201q0 86 20.5 148.5t56 95.5t75 47.5t85.5 14.5q47 0 105 -19.5t103 -43t94 -43t79 -19.5q33 0 47 22.5t13 79.5h200q0 -86 -20.5 -148t-56 -94t-75 -46.5t-85.5 -14.5z" />
    <glyph glyph-name="hungarumlaut" unicode="&#x2dd;" horiz-adv-x="1269" 
d="M641 1532l-258 -318h-219l147 318h330zM1106 1532l-258 -318h-219l147 318h330z" />
    <glyph glyph-name="uni0326" unicode="&#x326;" horiz-adv-x="0" 
d="M-164 -131v-156q0 -73 -9.5 -119.5t-37 -82.5t-78 -51.5t-131.5 -16.5v84q69 1 94 34t25 103h-121v205h258z" />
    <glyph glyph-name="Wgrave" unicode="&#x1e80;" horiz-adv-x="2269" 
d="M702 1896h359l188 -317h-219zM1774 0h-295l-340 1135h-9l-344 -1135h-292l-465 1462h272l338 -1147h8l348 1147h285l348 -1147h8l336 1147h269z" />
    <glyph glyph-name="wgrave" unicode="&#x1e81;" horiz-adv-x="2150" 
d="M643 1534h358l189 -317h-219zM2109 1102l-450 -1102h-264l-310 821h-8l-309 -821h-264l-463 1102h268l324 -823h8l307 815h266l308 -818h8l311 826h268z" />
    <glyph glyph-name="Wacute" unicode="&#x1e82;" horiz-adv-x="2269" 
d="M1575 1896l-328 -317h-219l189 317h358zM1774 0h-295l-340 1135h-9l-344 -1135h-292l-465 1462h272l338 -1147h8l348 1147h285l348 -1147h8l336 1147h269z" />
    <glyph glyph-name="wacute" unicode="&#x1e83;" horiz-adv-x="2150" 
d="M1518 1534l-328 -317h-219l188 317h359zM2109 1102l-450 -1102h-264l-310 821h-8l-309 -821h-264l-463 1102h268l324 -823h8l307 815h266l308 -818h8l311 826h268z" />
    <glyph glyph-name="Wdieresis" unicode="&#x1e84;" horiz-adv-x="2269" 
d="M758 1595v205h258v-205h-258zM1262 1595v205h258v-205h-258zM1774 0h-295l-340 1135h-9l-344 -1135h-292l-465 1462h272l338 -1147h8l348 1147h285l348 -1147h8l336 1147h269z" />
    <glyph glyph-name="wdieresis" unicode="&#x1e85;" horiz-adv-x="2150" 
d="M700 1288v205h258v-205h-258zM1204 1288v205h258v-205h-258zM2109 1102l-450 -1102h-264l-310 821h-8l-309 -821h-264l-463 1102h268l324 -823h8l307 815h266l308 -818h8l311 826h268z" />
    <glyph glyph-name="Ygrave" unicode="&#x1ef2;" horiz-adv-x="1644" 
d="M393 1896h359l188 -317h-219zM1630 1462l-680 -911v-551h-254v547l-682 915h308l501 -690l512 690h295z" />
    <glyph glyph-name="ygrave" unicode="&#x1ef3;" horiz-adv-x="1372" 
d="M248 1534h358l189 -317h-220zM1341 1102l-557 -1204q-80 -173 -188.5 -241.5t-284.5 -68.5q-118 0 -194 11v217q112 -15 176 -15q151 0 205 121l41 90l-508 1090h276l373 -846h8l377 846h276z" />
    <glyph glyph-name="uni2007" unicode="&#x2007;" horiz-adv-x="643" 
 />
    <glyph glyph-name="uni2008" unicode="&#x2008;" horiz-adv-x="516" 
 />
    <glyph glyph-name="uni200B" unicode="&#x200b;" horiz-adv-x="0" 
 />
    <glyph glyph-name="endash" unicode="&#x2013;" horiz-adv-x="1304" 
d="M1223 483h-1141v205h1141v-205z" />
    <glyph glyph-name="emdash" unicode="&#x2014;" horiz-adv-x="1712" 
d="M1636 483h-1560v205h1560v-205z" />
    <glyph glyph-name="quoteleft" unicode="&#x2018;" horiz-adv-x="452" 
d="M88 852v203q0 216 65.5 310t211.5 97v-110q-63 -3 -92 -55t-29 -187h123v-258h-279z" />
    <glyph glyph-name="quoteright" unicode="&#x2019;" horiz-adv-x="454" 
d="M367 1462v-202q0 -216 -65.5 -310.5t-211.5 -97.5v111q64 3 92.5 54.5t28.5 186.5h-123v258h279z" />
    <glyph glyph-name="quotesinglbase" unicode="&#x201a;" horiz-adv-x="454" 
d="M367 258v-203q0 -216 -65.5 -310t-211.5 -97v110q63 3 92 55t29 187h-123v258h279z" />
    <glyph glyph-name="quotedblleft" unicode="&#x201c;" horiz-adv-x="894" 
d="M88 852v203q0 216 65.5 310t211.5 97v-110q-63 -3 -92 -55t-29 -187h123v-258h-279zM530 852v203q0 216 65.5 310t211.5 97v-110q-63 -3 -92 -55t-29 -187h123v-258h-279z" />
    <glyph glyph-name="quotedblright" unicode="&#x201d;" horiz-adv-x="897" 
d="M367 1462v-202q0 -216 -65.5 -310.5t-211.5 -97.5v111q64 3 92.5 54.5t28.5 186.5h-123v258h279zM809 1462v-202q0 -216 -65.5 -310.5t-211.5 -97.5v111q64 3 92.5 54.5t28.5 186.5h-123v258h279z" />
    <glyph glyph-name="quotedblbase" unicode="&#x201e;" horiz-adv-x="897" 
d="M367 258v-203q0 -216 -65.5 -310t-211.5 -97v110q63 3 92 55t29 187h-123v258h279zM809 258v-203q0 -216 -65.5 -310t-211.5 -97v110q63 3 92 55t29 187h-123v258h279z" />
    <glyph glyph-name="dagger" unicode="&#x2020;" horiz-adv-x="1298" 
d="M1223 1032v-205h-455v-1210h-238v1210h-454v205h454v430h238v-430h455z" />
    <glyph glyph-name="daggerdbl" unicode="&#x2021;" horiz-adv-x="1298" 
d="M1223 827h-455v-575h455v-205h-455v-430h-238v430h-454v205h454v575h-454v205h454v430h238v-430h455v-205z" />
    <glyph glyph-name="bullet" unicode="&#x2022;" horiz-adv-x="958" 
d="M479 342q-161 0 -275 114t-114 275t114 275t275 114t275 -114t114 -275t-114 -275t-275 -114z" />
    <glyph glyph-name="ellipsis" unicode="&#x2026;" horiz-adv-x="1880" 
d="M164 0v279h299v-279h-299zM791 0v279h299v-279h-299zM1417 0v279h299v-279h-299z" />
    <glyph glyph-name="perthousand" unicode="&#x2030;" horiz-adv-x="3059" 
d="M483 1462q196 0 302 -107.5t106 -303.5t-106 -304t-302 -108t-301.5 108t-105.5 304t105.5 303.5t301.5 107.5zM1384 1436h213l-860 -1436h-213zM483 803q209 0 209 248q0 247 -209 247t-209 -247q0 -248 209 -248zM1638 795q196 0 302 -108t106 -304t-106 -304
t-302 -108t-301.5 108t-105.5 304t105.5 304t301.5 108zM2576 795q196 0 302 -108t106 -304t-106 -304t-302 -108t-301.5 108t-105.5 304t105.5 304t301.5 108zM1638 135q209 0 209 248t-209 248q-208 0 -208 -248t208 -248zM2576 135q209 0 209 248t-209 248t-209 -248
t209 -248z" />
    <glyph glyph-name="guilsinglleft" unicode="&#x2039;" horiz-adv-x="559" 
d="M92 705l375 323v-274l-227 -191v-8l227 -190v-275l-375 324v291z" />
    <glyph glyph-name="guilsinglright" unicode="&#x203a;" horiz-adv-x="559" 
d="M467 705v-291l-375 -324v275l227 190v8l-227 191v274z" />
    <glyph glyph-name="uni2070" unicode="&#x2070;" horiz-adv-x="1136" 
d="M567 1477q234 0 357 -115.5t123 -329.5t-122.5 -329t-357.5 -115q-233 0 -355 115t-122 329t122 329.5t355 115.5zM567 735q289 0 289 297q0 299 -289 299q-286 0 -286 -299q0 -297 286 -297z" />
    <glyph glyph-name="franc" unicode="&#x20a3;" horiz-adv-x="1736" 
d="M166 0v1434h1257v-217h-1007v-349h927q146 0 235 -75.5t89 -206.5q0 -91 -48.5 -152.5t-137.5 -91.5v-8l207 -334h-254l-187 301h-303v-301h-223v664h-305v-664h-250zM944 678v-197h356q109 0 109 99q0 50 -29.5 74t-79.5 24h-356z" />
    <glyph glyph-name="Euro" unicode="&#x20ac;" horiz-adv-x="1673" 
d="M543 518q51 -163 181.5 -246.5t309.5 -83.5q244 0 467 164v-262q-201 -113 -467 -113q-143 0 -267.5 34t-225.5 100t-171.5 170t-99.5 237h-202l84 135h100q-2 20 -2 64q0 46 2 69h-182l84 132h116q60 263 265.5 400.5t498.5 137.5q346 0 559 -186l-129 -178
q-193 153 -430 153q-180 0 -310 -82.5t-179 -244.5h760l-86 -132h-701q-2 -23 -2 -69q0 -44 2 -64h602l-82 -135h-495z" />
    <glyph glyph-name="uni2116" unicode="&#x2116;" horiz-adv-x="2881" 
d="M2300 1487q200 0 309 -94t109 -265q0 -170 -109 -264t-309 -94t-309 94t-109 264q0 171 109 265t309 94zM1393 1462h243v-1462h-288l-932 1130h-8v-1130h-244l2 1462h297l921 -1120h9v1120zM2300 920q103 0 160 53.5t57 154.5q0 102 -57 156.5t-160 54.5t-160 -54.5
t-57 -156.5q0 -101 57 -154.5t160 -53.5zM1882 205h836v-205h-836v205z" />
    <glyph glyph-name="trademark" unicode="&#x2122;" horiz-adv-x="1949" 
d="M846 1462v-147h-299v-586h-170v586h-301v147h770zM1874 1462v-733h-172v561h-8l-224 -561h-141l-229 571h-8v-571h-162v733h274l193 -501h8l188 501h281z" />
    <glyph glyph-name="uni2126" unicode="&#x2126;" horiz-adv-x="1888" 
d="M102 0v193h433v8q-85 28 -159 78t-137 123t-100 177t-37 226q0 130 42 241.5t118.5 194t181.5 141t232 88t268 29.5t268 -29.5t232 -88t181.5 -141t118.5 -194t42 -241.5q0 -122 -36.5 -226t-99.5 -177t-137 -123t-159 -78v-8h432v-193h-739v270q219 45 340.5 180
t121.5 343q0 152 -75 264t-202 167.5t-288 55.5t-288 -55.5t-202 -167.5t-75 -264q0 -208 122 -343t341 -180v-270h-740z" />
    <glyph glyph-name="partialdiff" unicode="&#x2202;" horiz-adv-x="1476" 
d="M666 1518q70 0 134 -8t137 -30.5t134 -58t118.5 -96.5t97 -140t63.5 -193.5t24 -252.5q0 -774 -698 -774q-90 0 -172 17t-156 55t-128.5 94t-86 140t-31.5 186q0 114 34.5 205.5t93 152t138.5 101t166 58t181 17.5q236 0 389 -99q-14 107 -49 186t-78.5 124t-103 72
t-112.5 35t-118 8q-101 0 -198 -29t-171 -80l-69 183q90 61 210 94t251 33zM676 166q203 0 314 117.5t123 377.5q-124 130 -359 130q-67 0 -123 -10t-106.5 -34.5t-86 -62t-56 -95.5t-20.5 -132q0 -151 85 -221t229 -70z" />
    <glyph glyph-name="emptyset" unicode="&#x2205;" horiz-adv-x="1826" 
d="M1427 1274q110 -105 172 -246t62 -297q0 -153 -59 -291t-159 -238t-238.5 -159t-291.5 -59q-208 0 -381 104l-77 -104h-209l153 204q-110 103 -171.5 244t-61.5 299q0 153 59 291.5t159 238.5t238 159t291 59q203 0 383 -105l78 105h209zM356 731q0 -114 40.5 -217
t113.5 -182l680 901q-127 76 -277 76q-152 0 -280.5 -77.5t-202.5 -210.5t-74 -290zM913 154q114 0 217 45.5t177.5 123t118.5 184t44 224.5q0 230 -151 397l-680 -901q124 -73 274 -73z" />
    <glyph glyph-name="uni2206" unicode="&#x2206;" horiz-adv-x="1812" 
d="M1065 1462l698 -1462h-1712l699 1462h315zM418 207h975l-482 1038h-8z" />
    <glyph glyph-name="product" unicode="&#x220f;" horiz-adv-x="1800" 
d="M1636 -303h-254v1542h-964v-1542h-254v1765h1472v-1765z" />
    <glyph glyph-name="summation" unicode="&#x2211;" horiz-adv-x="1652" 
d="M1536 -80v-223h-1372v180l702 705l-665 704v176h1294v-223h-903l596 -635l-678 -684h1026z" />
    <glyph glyph-name="minus" unicode="&#x2212;" 
d="M1251 770v-205h-1081v205h1081z" />
    <glyph glyph-name="uni2219" unicode="&#x2219;" horiz-adv-x="667" 
d="M334 483q-68 0 -116 48.5t-48 115.5t48 115.5t116 48.5t116 -48.5t48 -115.5t-48 -115.5t-116 -48.5z" />
    <glyph glyph-name="radical" unicode="&#x221a;" horiz-adv-x="1380" 
d="M1305 1436l-584 -1739h-197l-256 713l-143 -70l-49 98l303 146l252 -703h4l520 1555h150z" />
    <glyph glyph-name="infinity" unicode="&#x221e;" horiz-adv-x="1830" 
d="M1288 1006q112 0 199 -55.5t130.5 -140t43.5 -179.5q0 -100 -43.5 -187.5t-130.5 -143.5t-199 -56q-211 0 -385 211q-170 -211 -366 -211q-110 0 -195.5 56t-128.5 143.5t-43 187.5q0 95 43 179.5t128.5 140t195.5 55.5q226 0 383 -209q169 209 368 209zM541 422
q84 0 145 46.5t123 141.5q-69 114 -128.5 166.5t-139.5 52.5q-90 0 -138.5 -55.5t-48.5 -142.5q0 -90 49.5 -149.5t137.5 -59.5zM1284 422q90 0 140.5 59.5t50.5 149.5q0 87 -49.5 142.5t-141.5 55.5q-83 0 -143.5 -45.5t-122.5 -138.5q66 -114 126.5 -168.5t139.5 -54.5z
" />
    <glyph glyph-name="integral" unicode="&#x222b;" horiz-adv-x="995" 
d="M782 1522q72 0 154 -15v-188q-72 10 -113 10q-46 0 -78 -6t-62 -22t-45 -49.5t-15 -84.5v-1222q0 -185 -103.5 -263.5t-306.5 -78.5q-77 0 -154 14v188q73 -10 113 -10q46 0 78.5 6t62.5 22t45 49.5t15 84.5v1223q0 186 103 264t306 78z" />
    <glyph glyph-name="approxequal" unicode="&#x2248;" 
d="M995 889q131 0 256 143v-217q-114 -131 -256 -131q-107 0 -223 59l-147 74q-112 57 -199 57q-146 0 -256 -176v217q103 164 256 164q87 0 199 -57l147 -74q116 -59 223 -59zM995 459q131 0 256 143v-217q-114 -131 -256 -131q-107 0 -223 59l-147 74q-112 57 -199 57
q-146 0 -256 -176v217q103 164 256 164q87 0 199 -57l147 -74q116 -59 223 -59z" />
    <glyph glyph-name="notequal" unicode="&#x2260;" 
d="M1251 776h-346l-164 -225h510v-205h-657l-117 -160h-225l117 160h-199v205h346l164 225h-510v205h657l117 160h225l-116 -160h198v-205z" />
    <glyph glyph-name="lessequal" unicode="&#x2264;" 
d="M170 836l1077 358v-223l-735 -223v-9l735 -223v-223l-1077 358v185zM1251 205v-205h-1081v205h1081z" />
    <glyph glyph-name="greaterequal" unicode="&#x2265;" 
d="M1251 836v-185l-1077 -358v223l735 223v9l-735 223v223zM170 205h1081v-205h-1081v205z" />
    <glyph glyph-name="lozenge" unicode="&#x25ca;" horiz-adv-x="1497" 
d="M827 1530l506 -795l-506 -794h-155l-508 794l508 795h155zM750 96l407 639l-407 641l-408 -641z" />
    <glyph glyph-name="i.loclTRK" horiz-adv-x="532" 
d="M137 1286v205h258v-205h-258zM141 0v1102h250v-1102h-250z" />
    <glyph glyph-name="N_T" horiz-adv-x="3176" 
d="M3121 1462v-223h-616v-1239h-254v1239h-617v-1239h-288l-932 1130h-8v-1130h-242v1462h297l921 -1120h9v1120h1730z" />
    <glyph glyph-name="N_T_U" horiz-adv-x="4751" 
d="M4334 1462h254v-903q0 -153 -53.5 -268t-152 -186.5t-231 -106.5t-297.5 -35t-297.5 35t-230.5 106.5t-151.5 186.5t-53.5 268v680h-616v-1239h-254v1239h-617v-1239h-288l-932 1130h-8v-1130h-242v1462h297l921 -1120h9v1120h1984v-895q0 -100 34.5 -175t99 -121.5
t151 -69.5t194.5 -23q222 0 351 96.5t129 292.5v895z" />
    <glyph glyph-name="N_T_Y" horiz-adv-x="4583" 
d="M4274 1462h295l-680 -911v-551h-254v547l-516 692h-614v-1239h-254v1239h-617v-1239h-288l-932 1130h-8v-1130h-242v1462h297l921 -1120h9v1120h1869l502 -690z" />
    <glyph glyph-name="T_T" horiz-adv-x="2816" 
d="M2761 1462v-223h-617v-1239h-254v1239h-964v-1239h-254v1239h-617v223h2706z" />
    <glyph glyph-name="T_T_U" horiz-adv-x="4390" 
d="M3973 1462h254v-903q0 -153 -53.5 -268t-151.5 -186.5t-230.5 -106.5t-297.5 -35t-297.5 35t-230.5 106.5t-151.5 186.5t-53.5 268v680h-617v-1239h-254v1239h-964v-1239h-254v1239h-617v223h2960v-895q0 -100 34.5 -175t99 -121.5t151 -69.5t194.5 -23t194.5 23
t151 69.5t99 121.5t34.5 175v895z" />
    <glyph glyph-name="T_T_Y" horiz-adv-x="4222" 
d="M3914 1462h295l-680 -911v-551h-254v547l-516 692h-615v-1239h-254v1239h-964v-1239h-254v1239h-617v223h2845l502 -690z" />
    <glyph glyph-name="T_U" horiz-adv-x="3172" 
d="M2755 1462h254v-903q0 -153 -53.5 -268t-152 -186.5t-231 -106.5t-297.5 -35t-297.5 35t-230.5 106.5t-151.5 186.5t-53.5 268v680h-616v-1239h-254v1239h-617v223h1741v-895q0 -100 34.5 -175t99 -121.5t151 -69.5t194.5 -23q222 0 351 96.5t129 292.5v895z" />
    <glyph glyph-name="T_V" horiz-adv-x="3082" 
d="M2787 1462h281l-688 -1462h-254l-584 1239h-616v-1239h-254v1239h-617v223h1671l527 -1163h8z" />
    <glyph glyph-name="T_W" horiz-adv-x="3710" 
d="M3414 1462h268l-467 -1462h-295l-340 1135h-8l-344 -1135h-293l-393 1239h-616v-1239h-254v1239h-617v223h1688l338 -1147h8l348 1147h285l348 -1147h8z" />
    <glyph glyph-name="T_Y" horiz-adv-x="3004" 
d="M2695 1462h295l-680 -911v-551h-254v547l-516 692h-614v-1239h-254v1239h-617v223h1626l502 -690z" />
    <glyph glyph-name="T_h" horiz-adv-x="2842" 
d="M2228 1128q103 0 187.5 -22.5t149 -68t100.5 -121.5t36 -177v-739h-250v651q0 144 -77 208.5t-230 64.5q-66 0 -126.5 -18.5t-112 -56.5t-82.5 -104.5t-31 -154.5v-590h-250v1239h-616v-1239h-254v1239h-617v223h1487v21h250v-522h8q145 167 428 167z" />
    <glyph glyph-name="T_i" horiz-adv-x="1941" 
d="M1542 1493h258v-205h-258v-49h-616v-1239h-254v1239h-617v223h1487v31zM1546 0v1102h250v-1102h-250z" />
    <glyph glyph-name="U_T" horiz-adv-x="3172" 
d="M3117 1462v-223h-616v-1239h-254v1239h-617v-680q0 -153 -53.5 -268t-151.5 -186.5t-230.5 -106.5t-297.5 -35t-297.5 35t-230.5 106.5t-151.5 186.5t-53.5 268v903h254v-895q0 -100 34.5 -175t99 -121.5t151 -69.5t194.5 -23t194.5 23t151 69.5t99 121.5t34.5 175v895
h1741z" />
    <glyph glyph-name="U_T_T" horiz-adv-x="4390" 
d="M4336 1462v-223h-617v-1239h-254v1239h-964v-1239h-254v1239h-617v-680q0 -153 -53.5 -268t-151.5 -186.5t-230.5 -106.5t-297.5 -35t-297.5 35t-230.5 106.5t-151.5 186.5t-53.5 268v903h254v-895q0 -100 34.5 -175t99 -121.5t151 -69.5t194.5 -23t194.5 23t151 69.5
t99 121.5t34.5 175v895h2960z" />
    <glyph glyph-name="U_T_U" horiz-adv-x="4747" 
d="M4329 1462h254v-903q0 -153 -53.5 -268t-151.5 -186.5t-230.5 -106.5t-297.5 -35t-297.5 35t-230.5 106.5t-151.5 186.5t-53.5 268v680h-616v-1239h-254v1239h-617v-680q0 -153 -53.5 -268t-151.5 -186.5t-230.5 -106.5t-297.5 -35t-297.5 35t-230.5 106.5t-151.5 186.5
t-53.5 268v903h254v-895q0 -100 34.5 -175t99 -121.5t151 -69.5t194.5 -23t194.5 23t151 69.5t99 121.5t34.5 175v895h1995v-895q0 -100 34.5 -175t99 -121.5t151 -69.5t194.5 -23t194.5 23t151 69.5t99 121.5t34.5 175v895z" />
    <glyph glyph-name="U_T_Y" horiz-adv-x="4579" 
d="M4270 1462h295l-680 -911v-551h-254v547l-516 692h-614v-1239h-254v1239h-617v-680q0 -153 -53.5 -268t-151.5 -186.5t-230.5 -106.5t-297.5 -35t-297.5 35t-230.5 106.5t-151.5 186.5t-53.5 268v903h254v-895q0 -100 34.5 -175t99 -121.5t151 -69.5t194.5 -23t194.5 23
t151 69.5t99 121.5t34.5 175v895h1880l502 -690z" />
    <glyph glyph-name="V_T" horiz-adv-x="3080" 
d="M3025 1462v-223h-617v-1239h-254v1239h-614l-584 -1239h-254l-688 1462h289l526 -1163h9l526 1163h1661z" />
    <glyph glyph-name="W_T" horiz-adv-x="3710" 
d="M3656 1462v-223h-617v-1239h-254v1239h-616l-395 -1239h-295l-340 1135h-9l-344 -1135h-292l-465 1462h272l338 -1147h8l348 1147h285l348 -1147h8l336 1147h1684z" />
    <glyph glyph-name="Y_T" horiz-adv-x="3004" 
d="M2949 1462v-223h-616v-1239h-254v1239h-615l-514 -688v-551h-254v547l-682 915h308l501 -690l512 690h1614z" />
    <glyph glyph-name="Y_T_T" horiz-adv-x="4222" 
d="M4168 1462v-223h-617v-1239h-254v1239h-964v-1239h-254v1239h-615l-514 -688v-551h-254v547l-682 915h308l501 -690l512 690h2833z" />
    <glyph glyph-name="f_i" horiz-adv-x="1363" 
d="M698 1323q-50 0 -85 -6t-67 -22t-48.5 -49.5t-16.5 -84.5v-59h314v-180h-314v-922h-250v922h-196v180h196v78q0 186 108 264t320 78q73 0 160 -15v-194q-77 10 -121 10zM969 1286v205h258v-205h-258zM973 0v1102h250v-1102h-250z" />
    <glyph glyph-name="f_l" horiz-adv-x="1394" 
d="M698 1323q-50 0 -85 -6t-67 -22t-48.5 -49.5t-16.5 -84.5v-59h314v-180h-314v-922h-250v922h-196v180h196v78q0 186 108 264t320 78q73 0 160 -15v-194q-77 10 -121 10zM1004 0v1483h249v-1483h-249z" />
    <glyph glyph-name="f_t" horiz-adv-x="1607" 
d="M1526 922h-314v-603q0 -68 34 -96t104 -28q100 0 172 16v-211q-81 -18 -197 -18q-200 0 -281 67.5t-81 231.5v641h-482v-922h-250v922h-196v180h196v78q0 186 108 264t320 78q73 0 160 -15v-194q-77 10 -121 10q-50 0 -85 -6t-67 -22t-48.5 -49.5t-16.5 -84.5v-59h482
v305h249v-305h314v-180z" />
    <glyph glyph-name="caroncomb.alt" horiz-adv-x="0" 
d="M-164 1483v-185q0 -73 -9.5 -122t-35 -88t-74 -57t-123.5 -19v100q70 1 91.5 32t21.5 105h-113v234h242z" />
    <glyph glyph-name="uni0326.case" horiz-adv-x="0" 
d="M-164 -131v-156q0 -73 -9.5 -119.5t-37 -82.5t-78 -51.5t-131.5 -16.5v84q69 1 94 34t25 103h-121v205h258z" />
    <glyph glyph-name="caron.alt" horiz-adv-x="606" 
d="M442 1483v-185q0 -198 -63 -282.5t-213 -85.5v100q51 1 79 20t42 66t14 133h-137v234h278z" />
    <glyph glyph-name="acute.case" horiz-adv-x="874" 
d="M711 1896l-328 -317h-219l188 317h359z" />
    <glyph glyph-name="breve.case" horiz-adv-x="1150" 
d="M987 1894q-1 -82 -35 -146t-91.5 -102t-129.5 -57.5t-156 -19.5t-156 19.5t-129 57.5t-91 102t-35 146h219q15 -133 192 -133q178 0 193 133h219z" />
    <glyph glyph-name="caron.case" horiz-adv-x="1228" 
d="M770 1896h295l-299 -317h-303l-299 317h295l151 -178h8z" />
    <glyph glyph-name="cedilla.case" horiz-adv-x="905" 
d="M164 -438v137h8q127 -37 217 -37q117 0 117 72q0 71 -117 71q-30 0 -77.5 -5t-61.5 -11h-8v72l139 217h156l-107 -166q44 6 82 6q114 0 171.5 -48.5t57.5 -135.5q0 -199 -338 -199q-137 0 -239 27z" />
    <glyph glyph-name="circumflex.case" horiz-adv-x="1228" 
d="M770 1579l-152 178h-8l-151 -178h-295l299 317h303l299 -317h-295z" />
    <glyph glyph-name="dieresis.case" horiz-adv-x="1089" 
d="M164 1595v205h258v-205h-258zM668 1595v205h258v-205h-258z" />
    <glyph glyph-name="dotaccent.case" horiz-adv-x="585" 
d="M164 1595v205h258v-205h-258z" />
    <glyph glyph-name="grave.case" horiz-adv-x="874" 
d="M164 1896h358l189 -317h-219z" />
    <glyph glyph-name="hungarumlaut.case" horiz-adv-x="1269" 
d="M641 1896l-258 -317h-219l147 317h330zM1106 1896l-258 -317h-219l147 317h330z" />
    <glyph glyph-name="macron.case" horiz-adv-x="1097" 
d="M934 1604h-770v184h770v-184z" />
    <glyph glyph-name="ogonek.case" horiz-adv-x="817" 
d="M535 -311q60 0 118 16v-154q-75 -16 -161 -16q-328 0 -328 199q0 23 10.5 52t35 64.5t60 67t92 59.5t123.5 43l168 -20q-71 -29 -119 -60.5t-70.5 -63.5t-31 -58.5t-8.5 -55.5q0 -37 33 -55t78 -18z" />
    <glyph glyph-name="ring.case" horiz-adv-x="921" 
d="M461 1532q-126 0 -211.5 67t-85.5 177t85.5 176.5t211.5 66.5t211.5 -66.5t85.5 -176.5t-85.5 -177t-211.5 -67zM461 1675q49 0 83 28t34 73t-34 72.5t-83 27.5t-83 -27.5t-34 -72.5t34 -73t83 -28z" />
    <glyph glyph-name="tilde.case" horiz-adv-x="1206" 
d="M805 1554q-47 0 -105 19.5t-103 43t-94 43t-79 19.5q-33 0 -46.5 -22t-12.5 -82h-201q0 86 20.5 148t56 95t75 47.5t85.5 14.5q47 0 105 -19.5t103 -43t94 -43t79 -19.5q33 0 47 23t13 80h200q0 -86 -20.5 -148t-56 -94.5t-75 -47t-85.5 -14.5z" />
    </font>
</defs>
</svg>
